質問専用掲示板21

利用上の注意

質問する人は……

  • まずはこのサイトを 単語検索 してください
  • 質問する前に』を読んでください
  • 携帯動画変換君 に同梱の Readme.txt を読んでください
  • 携帯動画変換君 の配布ページ『携帯向けに簡単に動画を変換してみよう』を読んでください
  • Google などで検索してください
  • その上で質問を書き込む場合は……
    • 回答者はボランティアです、期待に添える回答が必ず得られるとは限りません
    • 得られた回答が必ず正しいという保証はありません。自分で判断し自分の責任で行ってください
    • 携帯動画変換君 にかかわりのない質問や Windows の使い方・携帯端末の使い方などはしないでください
    • 題名は「何々が何々できない」と具体的で判りやすく付けてください
    • 質問はテンプレート を使って「何をどうしたらどうなった」と具体的に記入して下さい
    • 「初心者です」的発言は、回答者にとって何の意味も無いのでしないでください
  • あなたの質問と回答者のやりとりは、今後同じ疑問を持つ人を助けることになります
    回答を受けた後「試してみます」とだけ書いて放置せず、責任を持って結果を報告してください

回答する人は……

できる限り下記についてご留意下さい

  • 質問者に対する肯定的な態度
    • 怒らない
    • 良心的なフォロー
  • このサイトの目的であるナレッジベースとしての役割
    • 回答の根拠となった情報の所在をリンクで示す
    • 頻出する回答をまとめて資源の節約

テンプレート

"質問用テンプレートを推奨します,使わないと解りにくい文章が多数のためレスが付きにくいです!!!"

↓これをコピペして使ってください!!


【使用中のOS】 : 【使用中の機種】 : 【使用中ini設定】 : 【質問内容(詳細に)】 :


記入例

【使用中のOS】 :WindowsXP 【使用中の機種】 :W31S 【使用中ini設定】 :Transcoding_W31Ssp2.ini 【質問内容(詳しく詳細に)】 :AviSynth使用時に分割が出来ません。W31S.batでも同じ症状でした。

掲示板

利用上の注意は必ず読んでください
自分でやれることはしっかりやること!
それでも分からなかったら『質問する前に』を見ましょう
 〜作者さんの意向で、質問板の最大サイズは8388608バイト規制となっています。  過去の質問板の上の方に書かれた方、現在規制で書き込みでききません。納得出来ない方は、ここでもう一度書き込みしてください。〜

対応してるか

ジョン? (2006-04-09 (日) 23:48:16)

HMP-A1はワイド再生に対応していますか?また、MPEG4AVCは使えますか?

  • 実機があるならまず自分で試しましょう -- *? 2006-04-10 (月) 01:42:23

音声がずれる時

? (2006-04-09 (日) 23:29:06)

【使用中のOS】
:WindowsXP
【使用中の機種】
:psp2.60
【使用中ini設定】
:機種別設定:MP4ファイル, PSP向け設定
【質問内容(詳細に)】
:
音声がずれると言う時にTrancoding.iniのどこに「-async 1」-async 1000
を入力すれば良いですか?教えてください

  • 自分で試してまず実験しましょう 実験せずに人にきないでください試して音ずれが解消されたならそれで解決です -- *? 2006-04-09 (日) 23:38:11
  • いやだからどこの後ろとか直前とかそう言うことを知りたいREADMEのどこにも書いてなかったんで -- ? 2006-04-09 (日) 23:41:36
  • 書いてあることをやるんじゃなくて、自分でこうじゃないか、ここの後ろに入れてみようとか実験しましょうって言いたいんだと思う。とりあえず教えるとCommand0に入力すればいい Command0のどこかは、自分で実験しましょう。 -- ('A`) 2006-04-10 (月) 00:48:45

著作権解除

サザエ? (2006-04-09 (日) 23:11:40)

【使用中ini設定】
:Title=著作権解除
Command0=""<%AppPath%>\cores\ATOMChanger" "<%InputFile%

" "<OutputFile%>著作権無し.3g2" "Camouflage_MOVIE_for_W21T.ini""

前にここに同じタイトルで書き込みましたサザエです!メッシュさんに言われ、試してみましたがSD⇔携帯本体は出来ませんでした。どうすれば出来ますか?

  • "Camouflage_copy2ez.ini" 私はこちらを使ってますが。どこで拾ったか覚えてません。 -- 2006-04-09 (日) 23:21:45

SA700isで

BANANA? (2006-04-09 (日) 14:11:28)

【使用中のOS】
:WinXP
【使用中の機種】
:SA700is
【使用中ini設定】
:
Title=[MOVIE] QVGA動画 高画質
Command0=""<%AppPath%>\cores\ffmpeg" -y -i "<%InputFile%>" -timestamp "<%TimeStamp%>" -bitexact -vcodec xvid -s 320x240 -r 15 -b 384 -acodec aac -ac 2 -ar 48000 -ab 96 -f 3gp -muxvb 192 -muxab 64 "<%TemporaryFile%>.3gp""
Command1=""<%AppPath%>\cores\QT3GPPFlatten" "<%TemporaryFile%>.3gp" "<%OutputFile%>.3gp" -c QT_3GPP(MobileMP4)_QVGA_AAC.ini"
Command2="rm "<%TemporaryFile%>.3gp""
【質問内容(詳細に)】
:ここに載っていた設定で変換してminiSDに入れ、再生してみると音は出るのですが映像が全然映りません。
パソコンで再生すると映像もちゃんと出るのですがSA700isでは音声のみになってしまいます
どうすれば映像も表示されるんでしょうか

  • あ、すいません自己解決しました。サイズを変えればできました。 -- BANANA? 2006-04-09 (日) 14:50:47

無題

ttt? (2006-04-09 (日) 04:13:10)

【使用中のOS】
:xp
【使用中の機種】
:w41s
【使用中ini設定】
:[Item0] Title=64kbts(32kbts×2)/ステレオ登録可能 Command0=""<%AppPath%>\cores\ffmpeg" -y -i "<%InputFile%>" -title "<%Title%>" -timestamp "<%TimeStamp%>" -vn -acodec aac -ac 2 -ar 24000 -ab 32 -vol 200 -muxab 32 -f 3g2 "<%TemporaryFile%>.3gp"" Command1=""<%AppPath%>\cores\QT3GPPFlatten" "<%TemporaryFile%>.3gp" "<%TemporaryFile%>_2.3gp" -c QT_3GPP2_QVGA_AAC.ini"" Command2="rm "<%TemporaryFile%>.3gp"" Command3=""<%AppPath%>\cores\ATOMChanger" "<%TemporaryFile%>_2.3gp" "<%OutputFile%>.3g2" "Camouflage_Audio_for_W21S.ini"" Command4="rm "<%TemporaryFile%>_2.3gp""
【質問内容(詳細に)】
:3g2だったら512kbまで着歌登録可
と書いてあったのですが出来ません

  • 使ってるiniを晒せよ -- メッシュ? 2006-04-09 (日) 10:22:05
  • 忘れてました すいません -- ttt? 2006-04-09 (日) 11:07:57
  • 忘れてました すいません -- ttt? 2006-04-09 (日) 11:13:10
  • 自己解決できました すいません -- ttt? 2006-04-09 (日) 12:46:57

Camouflage_MOVIE_for_W41K.iniについて

わからん人? (2006-04-08 (土) 22:50:19)

ほんとに初心者ですみません
Camouflage_MOVIE_for_W41K.ini
のファイルの設定の仕方を教えてください
自分の設定だと不正データと出て再生できないので
やり方も教えてもらえば幸いです

  • 追加・・・・WIN2000のW41Kです -- わからん人? 2006-04-08 (土) 22:52:01
  • テンプレ使って書けよ   あと、上に書いてある ・「初心者です」的発言は、回答者にとって何の意味も無いのでしないでください  読んでないだろ。つまりお前には回答は来ないと思っていい。 -- 2006-04-08 (土) 23:09:19
  • 済みませんでした次回から気をつけます -- わからん人? 2006-04-08 (土) 23:11:13
  • 済みませんでした次回から気をつけます -- わからん人? 2006-04-08 (土) 23:14:03
  • 済みませんでした次回から気をつけます -- わからん人? 2006-04-08 (土) 23:14:12

著作権解除

かべ? (2006-04-08 (土) 21:45:18)

携帯動画変換君
で著作権解除はできますか?
友だちに赤外線通信で自作着うたを送りたいのですが

  • できる。やり方はこの質問21の下の方に似た質問があるからそれ参照 -- ('A`) 2006-04-08 (土) 22:07:13
  • W41Sでもできますか? -- かべ? 2006-04-08 (土) 22:48:02
  • WINなら、できるはず。W31S WikiのW21Sとかにも載ってるよ -- ('A`) 2006-04-08 (土) 23:07:56
  • 何度もすいません。詳しく教えていただけませんか -- かべ? 2006-04-08 (土) 23:59:44
  • 著作権を解除する事自体があまりいい事ではないので、著作権については自分で調べてください…教えていいのか迷う、W31S WikiのW21Sところに書いてあるのでよく読みましょう。よく、ね。 -- ('A`) 2006-04-09 (日) 00:06:44
  • ありがとう -- かべ? 2006-04-09 (日) 00:14:01

動画を見る

多々? (2006-04-08 (土) 21:19:59)

【使用中のOS】

:WindowsXP

【使用中の機種】

:W41S

どうやったら動画が見られますか
30秒しか見れません。
初心者ですいません。説明してもらわなくてもページを
をしえてくださるだけでもけっこうです。

PSP用に変換したファイルが再生途中で止まってしまいます。

forest? (2006-04-08 (土) 19:44:18)

【使用中のOS】
:WindowsXP
【使用中の機種】
:PSP
【使用中ini設定】
:Transcoding.ini
【質問内容(詳細に)】
:AviSynthを使用してWMVファイルのオーディオサンプルレート48khz、ログ上では以下のように入力ファイルのオーディオが表示されるファイルを変換しています。

 Stream #0.1: Audio: pcm_s16le, 48000 Hz, stereo, 1536 kb/s


すると、PSPでの再生時に以下のような2パターンの症状が確認できました。

〆得乎罎法嶌得犬任ません」とのエラーメッセージが表示され再生が中断さ れる。中断位置を早送りなどで飛ばしてしまえば続きを見ることができる  が、30分程度のうちに同様の中断が3,4箇所で起こる。

音ズレ、音割れが発生する。(最後まで再生できるかは未確認)

AVS_Skelton.avsファイルを以下のように修正することで,両評は改善できるのですが、△両評は改善された後に、,両評に移行してしまいます。

この□,両豺腓劉,両評が解決できません。どなたか解決方法をご存知ではありませんか?

<修正したAVS_Skelton.avsの内容>

# 3GP_Converter AVS-Mode skelton for120fps
LoadPlugin("C:\Program Files\AviSynth 2.5\plugins\warpsharp.dll")
LoadAviUtlInputPlugin("C:\Program Files\AviSynth 2.5\plugins\ds_input.aui", "DSInput")
DSInput("<%InputFile%>")
final_frame = FrameCount()-1
Trim(3,final_frame-3)
SSRC(44100)
return last

※以上の設定は
 http://blog.livedoor.jp/plus_095/archives/16174608.html
 を参照にして行いました。

  • 方法としては、いったん変換君でavi に変換し、それをPSP用にしたらどうだろうかな? -- メッシュ? 2006-04-08 (土) 19:58:27
  • お早い返事ありがとうございます。ですが、wmv(audio:48khz)→avi→mpeg4のような変換方法ではなく、wmv(audio:48khz)→mpeg4のような変換のための設定がないかを探しています。お心当たりおありでしたらよろしくお願いします。 -- forest? 2006-04-09 (日) 15:07:41
  • とりあえず、他のソフトとか試したら?PSP用動画に変換するやつは、見ただけでも3個ぐらいあったし。 -- メッシュ? 2006-04-09 (日) 15:25:48
  • avisynth+ffdshow+MediaCoderを入れれば大体のwmvは変換出来るよ。 -- マサト? 2006-04-09 (日) 19:19:59
  • PSPEncなるソフトで変換してみたのですが、同様の症状が確認できました。PC上では問題なく再生できることから、どうもPSP側の音声認識機能に問題がある様子。変換君側の設定変更でその辺をだますことができないものでしょうか? -- forest? 2006-04-10 (月) 01:46:01
  • avisynth+ffdshow+MediaCoderの環境での変換も試してみたのですが、症状の改善は見られませんでした。 -- forest? 2006-04-10 (月) 01:47:44

W41kの動画

ah? (2006-04-08 (土) 19:03:03)

【使用中のOS】
: XP
【使用中の機種】
: w41k
【使用中ini設定】
:Camouflage_MOVIE_for_W41K.ini
【質問内容(詳細に)】
:[Item6]
Title=EZムービー / 映像:Xvid 384kbps 15fps 音声:192kbps 48kHz Stereo
Command0=""<%AppPath%>\cores\ffmpeg" -y -i "<%InputFile%>" -timestamp "<%TimeStamp%>" -bitexact -vcodec xvid -mbd 2 -4mv -trell -aic -s 320x240 -r 15 -b 384 -acodec aac -ac 2 -ar 48000 -ab 96 -f 3gp -muxvb 192 -muxab 64 "<%TemporaryFile%>_1.3g2""
Command1=""<%AppPath%>\cores\QT3GPPFlatten" "<%TemporaryFile%>_1.3g2" "<%TemporaryFile%>_2.3g2" -c QT_3GPP2_QVGA_AAC.ini"
Command2=""<%AppPath%>\cores\ATOMChanger" "<%TemporaryFile%>_2.3g2" "<%OutputFile%>.3g2" "Camouflage_MOVIE_for_W41K.ini""
Command3="rm "<%TemporaryFile%>_1.3g2""
Command4="rm "<%TemporaryFile%>_2.3g2""
これで変換したところ、音声ファイルになってしまいます。何がいけないのでしょうか?

  • ん〜 設定の中には特に変なところが無いからなー 一応Quick Time のver を確認してみてください。ver7 だったら、W21SAの中からリンクで6.5があるから、それをインスコしてみ -- メッシュ? 2006-04-08 (土) 20:00:39
  • まさかとは思うがmp3とかを変換してない…よな。 -- ('A`) 2006-04-08 (土) 21:24:28
  • Quick Timeを6.5にしましたが結果は同じでした。元はAVIで偽装着うたエディタを使って転送していますが問題ありますか? -- ah? 2006-04-08 (土) 22:09:24
  • 特に問題ない、むしろ俺と同じだな。まさかとは思うが偽装着うたエディタでサウンドフォルダに入れてるとかはないよな、流石に。ってかそのファイルをPCで再生しても音声だけなのか? -- ('A`) 2006-04-08 (土) 22:22:21
  • PCの時点で音声のみです。サイズもどう考えても映像の分はなく、音声だけという感じです -- ah? 2006-04-08 (土) 22:25:53
  • XviD+mp3とかじゃないよね。 -- マサト? 2006-04-08 (土) 22:26:24
  • かぶった -- マサト? 2006-04-08 (土) 22:27:10
  • ログウィンドウの表示をしたらCannot load avisynth.dllと出たのですが関係あるでしょうか? -- ah? 2006-04-08 (土) 22:28:28
  • 映像がwmvかも。 -- マサト? 2006-04-09 (日) 00:08:46
  • ヤバいよく読んでなかった。音声しかないのなら、出来たファイルも音声のみですよ。 -- マサト? 2006-04-09 (日) 00:10:20
  • Cannot load avisynth.dll って直訳どおりにavisynth.dllが読めないってことだからavisynth.dllがないんじゃない? -- ('A`) 2006-04-09 (日) 01:14:22
  • 原因はよくわかりませんでしたが、avisynthをダウンロードしてその後上の設定を少しいじった結果通常に再生できるものができました。 -- ah? 2006-04-09 (日) 10:28:58

著作権

龍氏? (2006-04-08 (土) 17:23:38)

製作した着うたの著作権を取ることは可能ですか

  • つQTPro -- 2006-04-09 (日) 11:53:10

au WIN W41Sの携帯変換について。

小池 竜一? (2006-04-08 (土) 15:03:58)

携帯動画変換君で作った着歌や着歌フルには著作権がかかっててメモリースティック内に保存や再生できない可能性がありますが…それを実現してしまいました。まずPCとメモリースティックをつなぐアダプターを用意しますs
次に携帯動画変換君でつくった。着歌フル Ez movieを入れていくわけなんですが…通常そのファイルやフォルダーは隠しファイルやフォルダーになっていて開くとAUというフォルダーが隠しフォルダーになっています。
それを開くとDFというフォルダーあります。次のも開くとその中に仕分けされたフォルダーが入ってますのでその中に着歌を入れてきますsそのときにファイル⇒プロパティでアーカイブのチェック項目解除と隠しファイルの設定をします。
ファイル名は サウンド  ならSDS_0000
       ムービー  ならEMA_0000

             画像ファイルならGRP_0000

と明記しますがファイルがたくさんあるときは0000の部分をひとつづつ増やせばOKそれでメモリースティック内に入れて再生すると。うまくいきます。
ちなみに重い1時間以上ある映画や長い音楽は読み取りに時間がかかるが再生できます。

  • ファイルの振り分けは既出だった気がする・・・・・ -- メッシュ? 2006-04-08 (土) 16:45:22
  • W41SはW21Sにリンクしてるけど、W21Sの設定は著作権無いはずだけどなぁ。 -- マサト? 2006-04-08 (土) 22:13:04

PSPの設定MPEG4 AVC

ジョン? (2006-04-08 (土) 12:12:58)

Title=AVC QVGA/29.97fps/VBR QB25 ステレオ/128kbps
TitleE=AVC QVGA/29.97fps/VBR QB25 Stereo/128kbps
Command0=""<%AppPath%>\cores\ffmpeg" -y -i "<%InputFile%>" -title "<%Title%>" -timestamp "<%TimeStamp%>" -bitexact -vcodec h264 -coder 1 -bufsize 128 -g 250 -s 320x240 -r 29.97 -qscale 25 -maxrate 1500 -acodec aac -ac 2 -ar 48000 -ab 64 -f psp "<%OutputPath%>MAQ<%RandomNumber5%>.MP4""
Command1=""<%AppPath%>\cores\ffmpeg" -y -i "<%InputFile%>" -f image2 -ss 5 -vframes 1 -s 160x120 -an "<%OutputPath%>MAQ<%RandomNumber5%>.THM""
ビットレートの上げ方はこの設定ではわかりません。Transcoding.iniカスタマイズを見てもわかりません。親切な方は「掲示板で」教えてください。

  • この設定はVBRなので、-b(固定ビットレート)ではなく-qscale(可変ビットレート)となります。ここでは-qscale 25 この数値を下げれば画質が良くなります。下げすぎるとコマが飛ぶ可能性があるので、徐々に調節するといいでしょう。 -- メッシュ? 2006-04-08 (土) 12:47:19
  • もう遅いけど自分で調べろよffmpeg usageにコマンドの意味とか書いてあるだろうが -- 2006-04-08 (土) 18:11:01

PSPの設定

ジョン? (2006-04-08 (土) 00:02:36)

Title=AVC QVGA/29.97fps/VBR QB25 ステレオ/128kbps
TitleE=AVC QVGA/29.97fps/VBR QB25 Stereo/128kbps
Command0=""<%AppPath%>\cores\ffmpeg" -y -i "<%InputFile%>" -title "<%Title%>" -timestamp "<%TimeStamp%>" -bitexact -vcodec h264 -coder 1 -bufsize 128 -g 250 -s 320x240 -r 29.97 -qscale 25 -maxrate 1500 -acodec aac -ac 2 -ar 48000 -ab 64 -f psp "<%OutputPath%>MAQ<%RandomNumber5%>.MP4""
Command1=""<%AppPath%>\cores\ffmpeg" -y -i "<%InputFile%>" -f image2 -ss 5 -vframes 1 -s 160x120 -an "<%OutputPath%>MAQ<%RandomNumber5%>.THM""
どこを上げれば画質、音量が上がりますか?

neonの着うた登録

シン? (2006-04-07 (金) 22:59:14)

neonの着うたで掲示板をみて作成して着信音には登録できるのですが
Eメールなどには登録ができません。
ここに載っているやりかただと、携帯にではEZムービー扱いになるので
Eメールなどに登録できなくなってしまうのですが、
Eメールに登録させる方法ありませんか?

  • 今現在、Eメール等への登録方法は発見されてません、mmfで我慢してください -- ('A`) 2006-04-07 (金) 23:02:36
  • souatari -- 2006-04-09 (日) 11:55:28

PSPの画質

ユッケ? (2006-04-07 (金) 17:43:55)

動画変更君にプリインストールされているPSPの設定でMPEG4の最高画質の設定
Title=QVGA/29.97fps/1500kbps ステレオ/128kbpsと
今話題のMPEG4AVCの設定
Title=AVC QVGA/29.97fps/VBR QB25 ステレオ/128kbpsか
itle=AVC QVGA/29.97fps/384kbps 2pasは
どれが一番画質がよいのですか?また、さらに画質が上がる設定はあるのですか?

  • すべての設定で同じファイルを変換して自分で見比べればわかることだと思うよ。画質の上げ方はTranscoding.iniカスタマイズに詳しく載ってます。 -- ('A`) 2006-04-07 (金) 19:03:22

V601Tで!

太郎? (2006-04-07 (金) 00:27:05)

はじめまして!!
V601Tをつかってます。V601Tで音だけ96ってやつで容量を最小に減らしたいんですがどうすればよろしいでしょうか?
とりあえず画像のサイズは小さくして少し減らせたんですが。
ほかにどのような設定をすればいいですか?
ぜひ教えてください。

エンコードできるファイルの種類について

(2006-04-06 (木) 09:46:48)

画像:XviD
音声:ogg
でできたogmファイルを変換する方法はありますか?
普通にやるとエラーが出るので、Avisynth 2.5などいろいろ
やってみたのですが、どうもうまくいきませんでした。

  • VirtualDubMod 等を使って、動画はそのまま、音声をmp3等にして、aviで出力したほうが吉 -- メッシュ? 2006-04-06 (木) 09:51:19
  • mencoderを使えば出来るよ。 -- マサト? 2006-04-06 (木) 14:34:27

mpeg4のビットレート上限?

たくや? (2006-04-05 (水) 20:20:03)

【使用中のOS】

:Windows XP

【使用中の機種】

W21CA

【使用中ini設定】
MPEG4設定
Command0=""<%AppPath%>\cores\ffmpeg" -y -i "<%InputFile%>" -pass 1 -passlogfile "<%TemporaryFile%>" -async 1000 -vcodec mpeg4 -s 400x240 -r 15 -b 600 -acodec aac -ac 2 -ar 44100 -ab 48 -f 3gp "<%TemporaryFile%>.3g2""
Command1=""<%AppPath%>\cores\ffmpeg" -y -i "<%InputFile%>" -pass 2 -passlogfile "<%TemporaryFile%>" -async 1000 -bitexact -vcodec mpeg4 -s 400x240 -r 15 -b 600 -acodec aac -ac 2 -ar 44100 -ab 48 -f 3gp "<%TemporaryFile%>.3g2""
Command2=""<%AppPath%>\cores\QT3GPPFlatten" "<%TemporaryFile%>.3g2" "<%TemporaryFile%>_2.3g2" -c QT3GP2_WQVGA500.ini"
Command3="rm "<%TemporaryFile%>-0.log""
Command4="rm "<%TemporaryFile%>.3g2""
Command5=""<%AppPath%>\cores\ATOMChanger" "<%TemporaryFile%>_2.3g2" "<%OutputFile%>.3g2" "Add_mfra.ini""
Command6="rm "<%TemporaryFile%>_2.3g2""

【質問内容(詳細に)】

:コーデックにmpeg4を使用した場合、ビットレートを550kbps以上に設定しても、550kbpsでエンコードした動画とファイルサイズが全く変わりません。
コーデックにxvidを使用した場合、800kbpsくらいに設定してもファイルサイズがビットレートと比例して大きくなりました。
(xvidは携帯との相性が悪く使用不可でした・・・)

関係があるかはわかりませんが、xvidでエンコード時、可変ビットレートの品質を表す? q= の数字が2,3,4と変化していきますが、
mpeg4でエンコード時はq=0.0としか表示されていませんでした。

高ビットレートで出力できるよう、自分で色々とiniをいじってみましたがダメでした。
なにか解決方法はありませんか

  • -qmin 1 -qmax 31をCommand0に入れればできると思う. -- ('A`) 2006-04-05 (水) 21:44:16
  • ありがとうございます。-qmin 1 -qmax 31をいれてみましたが、ファイルサイズ変わらず、q=0.0のままでした。 -- たくや? 2006-04-06 (木) 08:51:59
  • しまった2Passか、。-qmin 1 -qmax 31をCommand1にもいれないと意味がないかもしれない。それと気になるんだが-bitexactがCommand1にしかないんだが…w -- ('A`) 2006-04-06 (木) 22:22:09
  • すいません。貼り付けミスでぬけてしまいました。 -- たくや? 2006-04-07 (金) 12:12:24
    • qmin 1 -qmax 31をCommand0,Command1に追加してみましたが、解決しませんでした。q=0.0の表示は固定品質を表すのでしょうか? -- ? 2006-04-07 (金) 19:20:35
  • 今やってみたけど、きちんと指定したビットレート(1536k)の通りに変換されたけど…。qはクオリティを示すと思うけど、俺も0.0だったな -- ('A`) 2006-04-07 (金) 19:37:15
  • ありがとうございます。ソースが90秒程度であれば指定ビットレートで変換されるようなのですが、20分以上ものになるとどうしても指定より低くなってしまいます・・・。 -- たくや? 2006-04-08 (土) 13:53:23
  • 確かにソースが長くなるとなるほど指定ビットレートを無視するね、Xvidでも無視されたし、諦めるしかないのかもしれないな。 -- ('A`) 2006-04-08 (土) 21:34:30
  • そうですか。それでは現状維持ということにしておきます。いろいろとありがとうございました。 -- 2006-04-09 (日) 14:06:32
  • いぇいぇ、お役に立てず、申し訳ない -- ('A`) 2006-04-09 (日) 19:01:52

iriver U10で再生できる設定

U10初心者? (2006-04-05 (水) 12:57:15)

【使用中のOS】
:Windows XP Home
【使用中の機種】
:iriver U10
【使用中ini設定】
:PC用 MPEG4 avi
【質問内容(詳細に)】
:最初エンコーダではiriverterやPocketDivxencorder

を使用しましたが、音ずれや細かい設定が出来ないので
変換君のPC用設定を使いましたが、
U10ではサポートできないというメッセージが出ます。
サポート形式の 
「384kbps以下、15fps以下,MP3-128K 44.1MHz」の設定以内でも
うまく行きません。
 どなたか最適なini設定を教えてください。


 その内、機種別ページでU10が出来るといいのですが。

  • まず、そのiriver U10ってのが、どういう基準のものが再生できるか調べましょう。 -- メッシュ? 2006-04-05 (水) 13:47:23
  • http://www.iriver.co.jp/community/column.php?U10,community,104 に「U10で再生できる動画の形式とは」のコラムがあります。これでよろしいでしょうか -- U10初心者? 2006-04-05 (水) 14:24:10
  • ↑に書いてある通り、VirtualDubを使って、再生基準に合った設定にして出力すれば大丈夫だと思うけど・・・・ -- メッシュ? 2006-04-05 (水) 14:33:56
  • iriver U10?のページ作ってみたけど、再生できるかな? -- マサト? 2006-04-05 (水) 17:23:30
  • マサトさん。ありがとうございます。さっそく試してみます。 -- U10初心者? 2006-04-05 (水) 18:22:30
  • すぐに変換が終わってしまい、パソコン上でも見れません。変換君以外になにか必要なソフトやコーデックなどがあるのでしょうか。"-async"の部分が気になります。 -- U10初心者? 2006-04-05 (水) 18:44:48
  • InputファイルがAVIで、Outputフォルダと同じ場所にあるからだと思います。-asyncは、音ズレ防止の設定だったと思います。 -- マサト? 2006-04-05 (水) 19:24:57
  • ご指摘の通りでした。解決しました。何度もすみません。有難うございます。 -- U10初心者? 2006-04-05 (水) 19:49:54

変換のことで

だいき? (2006-04-05 (水) 03:28:19)

Q. 処理実行中にエラーが発生しました[Error:-2048]と出て変換できません

  処理実行中にエラーが発生しました[Error:1073741571]と出て変換できません
  処理実行中にエラーが発生しました[Error:-2095]と出て変換できません など

   * A. QuickTimeの最新版を再インストールしてください。
       「もう最新版です!」と面倒がらずに、消して、再インストールしてみてください。
       かなりの割合で動くようになります。
       QuickTimeをインストールする際には、「最小限のインストール」ではなく、
       「基本的なインストール」もしくは、「カスタムインストール」(で、QuickTime
       Authoringにチェックする)を選択してください。


と書いてありますがインストールしなおしても全く直りません。
【使用中のOS】
:WindowsXP
【使用中の機種】
:W31S
【使用中ini設定】
:Transcoding_3GPP_AAC_XviD.ini
【質問内容(詳しく詳細に)】
:一番に変換するのにエラーが起こります
使用中CPU
Athlon64 3700+
メモリー
512M
どうかよろしくお願いします。

  • 多分Quick Time ver7を使ってるからだと思う。W21SAから、リンクをたどってQuick Time ver 6.5をインストールしてみて。 -- メッシュ? 2006-04-05 (水) 13:48:33
  • 前に使ってたやつは7でも問題なく動いたんです -- だいき? 2006-04-05 (水) 19:47:10
  • あとQuickTimeをProにしたらエラーが起こるようになります -- だいき? 2006-04-05 (水) 19:47:56
  • あとQuickTimeをProにしたらエラーが起こるようになります -- だいき? 2006-04-05 (水) 19:59:14
  • ならばなおさらQT7のせいだと思うよ、6.5.2にすると吉 -- ('A`) 2006-04-05 (水) 21:45:46

ワイドな動画

ユッケ? (2006-04-04 (火) 22:55:59)

16:9の動画を上下の黒いのなしで「高画質」で再生できる携帯はありますか?

  • 16:9のアスペクト比表示の携帯無いしなぁ・・・ -- V3 2006-04-04 (火) 23:03:35
  • ん〜 -s 320x180 でやってみたら? -- メッシュ? 2006-04-04 (火) 23:05:02
  • -s 320x180で再生できる機種ってあるのかな、W21TW33SAは再生できない、PEИCK?は設定の中に-s 320x180の設定があるからできるのかな -- ('A`) 2006-04-04 (火) 23:13:07
  • W31CAは再生できなかった・・・ -- V3 2006-04-04 (火) 23:20:37
  • WQVGAが再生出来る機種に雑談板のワイドな動画設定を調節してみれば出来ると思う。 -- マサト? 2006-04-04 (火) 23:34:08
  • WQVGAが再生できる機種は16:9にする意味はないようなwまぁ実際は15:9だけどw -- ('A`) 2006-04-04 (火) 23:38:57
  • 俺の持ってる機種(W32HとW21SA)では再生できませんでしたw でも、黒ベタ入っててもいい気がするんだが・・・・・・・・・ -- メッシュ? 2006-04-05 (水) 00:12:55
  • とりあえず、高画質・高音質で再生できる携帯はたくさんありますんでw -- メッシュ? 2006-04-05 (水) 00:13:44

XviDについて

K・I? (2006-04-04 (火) 13:36:34)

【使用中のOS】
:WindowsXP
【使用中の機種】
:W21ca
【使用中ini設定】
Command0=""<%AppPath%>\cores\ffmpeg" -y -i "<%InputFile%>" -pass 1 -passlogfile "<%TemporaryFile%>" -async 1000 -bitexact -vol 384 -vcodec xvid -s 400x240 -r 15 -b 500 -acodec aac -ac 2 -ar 48000 -ab 80 -f 3gp -muxvb 64 -muxab 48 "<%TemporaryFile%>.3g2""
Command1=""<%AppPath%>\cores\ffmpeg" -y -i "<%InputFile%>" -pass 2 -passlogfile "<%TemporaryFile%>" -async 1000 -bitexact -vol 384 -vcodec xvid -s 400x240 -r 15 -b 500 -acodec aac -ac 2 -ar 48000 -ab 80 -f 3gp -muxvb 64 -muxab 48 "<%TemporaryFile%>.3g2""
Command2=""<%AppPath%>\cores\QT3GPPFlatten" "<%TemporaryFile%>.3g2" "<%TemporaryFile%>_2.3g2" -c QT3GP2_WQVGA500.ini"
Command3="rm "<%TemporaryFile%>-0.log""
Command4="rm "<%TemporaryFile%>.3g2""
Command5=""<%AppPath%>\cores\ATOMChanger" "<%TemporaryFile%>_2.3g2" "<%OutputFile%>.3g2" "Add_mfra.ini""
Command6="rm "<%TemporaryFile%>_2.3g2""
【質問内容(詳しく詳細に)】
xvidを使用してエンコードした場合、変換元の動画に変化がない(静止画のように動きがない)場面では、動画のみフリーズしてしまいます。
(音は問題なく再生されていきます。)

質問専用板17にも類似した質問がありましたが、対処方法がよくわかりませんでした。
申し訳ありませんが、お詳しい方よろしくおねがいします。

  • 質問17と同じ内容だから、その対処法がわからないと…Google等で分からない部分を検索するなどしてください -- ('A`) 2006-04-04 (火) 14:38:01
  • 方法1 編集ソフトで同じ絵が連続しないように一枚一枚修正する -- 匿名希望? 2006-04-04 (火) 21:49:03
  • 方法2 MencoderやXviD1.1.0で変換 -- 匿名希望? 2006-04-04 (火) 21:49:51
  • AviSynthを利用はどうですか? -- 2006-04-04 (火) 22:10:45
  • AviUtlでノイズをランダムで付加するフィルタってのがあるけど・・・・・・ノイズといっても普通に見たら分からないぐらい小さいのから大きいのまであります。 -- メッシュ? 2006-04-04 (火) 23:06:12

exeからの引数つきでの起動について

松風タイフーン? (2006-04-04 (火) 13:05:16)

【使用中のOS】
:XP
【使用中の機種】
【使用中ini設定】
【質問内容(詳しく詳細に)】
:Dos等でのexeからの起動で、引数にてファイル名、変換形式を指定し出力するといった動作は可能なのでしょうか?

  • 3GP_Converter.exeに関していえば不可能でしょう。。ただ、ffmpegはもともとLinuxターミナル用ですし、ほかのexeも-hオプションがあるところを見ると、可能でしょう。 -- _? 2006-04-04 (火) 13:45:10
  • ありがとうございます。それでは各exeのヘルプを参照してみます -- 松風タイフーン? 2006-04-04 (火) 14:31:23

flv

庭師? (2006-04-04 (火) 03:03:15)

【使用中のOS】
:XP
【使用中の機種】
:ipod
【使用中ini設定】
:mp4ファイル、ipod向け設定
【質問内容(詳細に)】
:googlevideoのmp4ファイルとして落とせないものを
変換して入れようと試みたところ、
error-50が出てopenmoviefileが出てしまいできません。
他のflv形式のものは出来るのですが、
それだけ出来ません。
388MBとかなり大型なのですが
それだからでしょうか。

  • すいません、エラー50が出ないで、パーセンテージも出る前に処理中の欄から消える場合もあります。というか圧倒的でした。 -- 庭師? 2006-04-04 (火) 03:20:22
  • openmoviefileと出ているなら、その通りの意味だから他の形式に変換すれば解決すると思うよ -- ('A`) 2006-04-04 (火) 14:39:12
  • どうにかflvをとにかく他の形式に変えようと思っても、どうやろうにも出来ません。 -- 庭師? 2006-04-04 (火) 20:54:30
  • flvについて調べてみたけど他の形式に変換するソフトはないみたいだな。そうなるとあきらめるしかないかもしれません。 -- ('A`) 2006-04-04 (火) 21:06:16
  • HugFlashでやってみてもどうも最初のほうの場面が乱れます、しかも音声と音なし動画をくっつけようとしてもエラー。 -- 庭師? 2006-04-04 (火) 23:18:11
  • それを再生できるなら、カハマルカの瞳ってソフトを使ってキャプチャすれば、何とかなると思う。 -- メッシュ? 2006-04-05 (水) 13:50:08
  • どうも!できました!けれども、3分ごとに区切られた(変更可能?)を結合、そしてそれを変換すると緑と黒のおかしな動画になるので、結合したaviをmpegに変換して、それを変換君に通すとできます。 -- 庭師? 2006-04-05 (水) 18:58:43
  • 3分ごとに区切られるのは、下にあるレコーディング設定の 180:分間 を0にすると2GBごとに区切られるようになります。 -- メッシュ? 2006-04-06 (木) 09:19:10
  • で、変換するとおかしくなるのを防ぐ方法は、Cinepack Codec by Radius とか言う変な名前のコーデックを使います。設定は、圧縮の品質100 キーフレーム100 データ率0 にするとほぼ劣化なしで変換できます。だけど、ファイルサイズがでかくなるので、あとで別のコーデックを使って先ほど出力したファイルをもう一回圧縮するといいですよ。 -- メッシュ? 2006-04-06 (木) 09:21:54

SDについて

レイ? (2006-04-04 (火) 02:12:28)

【使用中のOS】
:WindowsXP
【使用中の機種】
:A5518SA
【使用中ini設定】
:Transcoding_A5518SA.ini←ココを参考に・・・
【質問内容(詳細に)】
:なにも問題なく変換されてるんですが・・・512MBのminiSDに変換したものをPCから取り込み携帯に・・・という方法でやってるんですけど・・miniSDへ転送して携帯のデータフォルダ内で再生するのではなくminiSD内で再生できないんでしょうか??ちょっとわかずらい日本語ですいませんが・・・どうぞおしえてください。

  • W33SAに解決法が載ってますよ。 -- ('A`) 2006-04-04 (火) 14:04:40
  • わかりました、ありがとうございます -- レイ? 2006-04-06 (木) 23:31:23

やっぱりDocomoだと

くに? (2006-04-03 (月) 21:28:23)

【使用中のOS】
:windows XP
【使用中の機種】
:D902i
【使用中ini設定】
:色々
【質問内容(詳細に)】
着歌フルはむりなんですかねぇ

  • kmfは無理 ただ3GPPのAACでのフルは可能 やり方知らない場合は自分で調べましょう -- 名無し( ´,_ゝ`)プッ。? 2006-04-03 (月) 21:36:59
  • 変換してブリーフケースでのDLしようとしてるのですが、Iモーションの容量オーバーと言われます。 -- くに? 2006-04-09 (日) 10:09:08
  • 他にやり方があるのでしょうか? -- くに? 2006-04-09 (日) 10:10:46

無題

あかり? (2006-04-03 (月) 14:13:40)

【使用中のOS】
:WindowsXP
【使用中の機種】
:SH902i
【使用中ini設定】
:
【質問内容(詳細に)】
:30分の動画なんですが、15秒で終わってしまいます。
どのようにすればよいのですか?

  • とりあえず、使用中ini設定を書いてくれ。 俺の予想だと、断片化だな。それか-fsが有効になってる。 -- メッシュ? 2006-04-03 (月) 14:55:20

W41Kの着信登録について

初心者? (2006-04-03 (月) 11:05:01)

【使用中のOS】
:Windows2000
【使用中の機種】
:W41K
【質問内容(詳細に)】
:W41Kで着信音に登録できる音楽の作り方がまだここのサイトに載っていないので
作り方を教えていただきたいと思い質問しました。
返信よろしくお願いします。

  • 自分で調べましょう。 -- マサト? 2006-04-03 (月) 11:36:55
  • とりあえず同じシリーズのiniを試してみたら?W11KW31K等を -- メッシュ? 2006-04-03 (月) 13:09:43
  • 「初心者」はだめじゃ。。。? -- 2006-04-03 (月) 14:03:10
  • W41K登録可能方法追加。動画に関しては、サンプルがないので解析不可能。 -- マサト? 2006-04-03 (月) 14:57:18
  • とりあえず動画W41Kの所に置いてあります。 -- V3 2006-04-04 (火) 21:59:42

著作権解除

サザエ? (2006-04-03 (月) 10:49:49)

【使用中のOS】
:Windows98
【使用中の機種】
:W21T
【使用中ini設定】
:Title=著作権解除
Command0=""<%AppPath%>\cores\ATOMChanger" "<%InputFile%>" "<%OutputFile%>著作権無し.3g2" "Camouflage_MOVIE_for_W21T.ini""
【質問内容】
:上のiniは質問専用板19に載ってたやつのW32SってとこをW21Tに変えたんですけど、これで出来ますか?

  • 自分で実験してそれで出来なかったらここで聞いてください。 -- メッシュ? 2006-04-03 (月) 10:56:01
  • 遅くなりました!また新しく書かないと気づかないかな?とりあえずやってみましたが、SD⇔携帯本体は出来ませんでした。 -- サザエ? 2006-04-07 (金) 19:50:09
  • 遅くなりました!また新しく書かないと気づかないかな?とりあえずやってみましたが、SD⇔携帯本体は出来ませんでした。 -- サザエ? 2006-04-07 (金) 19:50:11

フルタイムの変換は

Tubo? (2006-04-03 (月) 09:46:02)

OS:WindowsXP
機種:docomo(SH902i)
ini設定:? SH901i
質問内容:CDから音楽を変換しているのですが、一曲変換できないのです。約20秒程ですが再生して聞けます。フルタイムで変換するにはどうすればよいのでしょうか

  • Windows Media Playerとかを使ってその曲をちゃんと取り込んでから変換してみては? -- メッシュ? 2006-04-03 (月) 10:31:24
  • ありがとうございます。やりましたが結果は同じでした。ファイル変換中に後半を切り捨てているようなのです -- Tubo? 2006-04-03 (月) 10:45:50
  • ん〜 他のファイルはちゃんとできるんだよね?Transcoding.ini ってのを開いて、使ってるアイテムの中に -fs ってオプションが無いか探してみて -- メッシュ? 2006-04-03 (月) 10:55:38
  • デフォルトのまま使ってます Title=着モーション QCIF 映像64kbps音声80kbps(ステレオ) 300KB -- Tubo? 2006-04-03 (月) 11:11:52
  • こうなってますね -fs 280 -timestamp -- Tubo? 2006-04-03 (月) 11:13:10
  • ↑その設定だと、変換途中で300Kbに達したら、自動的に変換を終了する設定になっています。なので、1曲まるまる変換して聞きたい場合は、3GPPファイル, 音声AAC形式一般設定 を使ってください。 -- メッシュ? 2006-04-03 (月) 12:42:20
  • わかりました。今晩やってみますありがとうございます -- Tubo? 2006-04-03 (月) 13:03:16
  • あーちなみに、↑の着モーションみたいに登録は出来なくなるよ。 -- メッシュ? 2006-04-03 (月) 13:10:19
  • ありがとうございました。できましたw -- Tubo? 2006-04-04 (火) 09:06:05

本当??

pan? (2006-04-03 (月) 01:43:30)

HE AACで作ったm4aとかのファイルを3GPPFlattenに通すとSBR部分がカットされるって本当ですか??
QTの素通しもまたそうなのでしょうか??

  • そもそもHE-AACがなんなのか勉強しとk。 -- 2006-04-03 (月) 09:07:40
  • 聞いた感じあんまわかんないのでまぁいいです。すんません。 -- pan? 2006-04-03 (月) 13:54:08

すみません。

レドナ・トェム? (2006-04-02 (日) 16:05:10)

PSP用のMP4に変換しようとしたら
A>Dialog : 処理実行中にエラーが発生しました [Error:1]
と出て変換されませんでした。自分なりに手を尽くしたのですが、一向に改善されません。この場合どのようにすればよいか、どなたか教えていただけませんか。

  • すみません。記入忘れです。【使用中のOS】:WindowsXP【使用中の機種】:PSP【使用中ini設定】:Transcoding_PSP_Direct.ini -- レドナ・トェム? 2006-04-02 (日) 16:09:48
  • Error:1については質問する前に ←に書いてありますよ。 -- ('A`) 2006-04-02 (日) 16:13:14
  • そうですか!?ありがとうございます。時間をお取りして申し訳ありませんでした。答案感謝です。 -- レドナ・トェム? 2006-04-02 (日) 16:14:45
  • そうですか!?ありがとうございます。時間をお取りして申し訳ありませんでした。答案感謝です。 -- レドナ・トェム? 2006-04-02 (日) 16:17:24

変換元ファイル形式

ビッグサム? (2006-04-02 (日) 11:47:46)

【使用中のOS】
:Windows-Xp Media center edition
【使用中の機種】
:V601T
【使用中ini設定】
:V601T向け設定
【質問内容(詳細に)】
:マイクロソフトのテレビ録画ファイルである.dvr-ms形式を変換すると、問題なく変換は終了して.3g2ファイルが生成されますが、音声がついていません。QTで再生しても無音。V601Tで再生しても同じで、スピーカ音量のアイコンも出てきません。ビデオカメラで撮影した.mpgを同様に変換すると、まったく正常に再生されますので、V601T側の問題ではなく、変換君のサポートファイル仕様にないのか、コツが別にあるのかかと思います。Wikiでファイル形式関係を探しましたが、見当たらなかったので、投稿させていただきました。

  • ログを書いてもらえば分かるけど、たぶん音声の形式に対応していないからだと思う。 -- マサト? 2006-04-02 (日) 14:11:07
  • 自己レスです。マサトさんのご指摘の通り、MSの特殊形式の様です。sonic社のMyDVDでいったん.VODに変換してから変換君にかけると問題なく再生できました。でも2段変換なのでかったるいです。Media Center Editionフォーラムを覗いたら、sonyPSP用Image Converter2だと直接.dvr-msからMPEG4に変換できるそうです。 -- ビッグサム? 2006-04-02 (日) 18:00:31

音声

野郎? (2006-04-02 (日) 08:27:17)

【使用中のOS】
:WindowsXP

【使用中の機種】
:W31CA

【使用中ini設定】
:Title=WQVGA標準画質 画質 ビットレート300k フレームレート15fps  音声 ビットレート96kbps ステレオ 
Command0=""<%AppPath%>\cores\ffmpeg" -y -i "<%InputFile%>" -pass 1 -passlogfile "<%TemporaryFile%>" -async 1000 -bitexact -vcodec mpeg4 -s 400x240 -r 15 -b 300 -acodec aac -ac 2 -ar 44100 -ab 48 -f 3gp "<%TemporaryFile%>.3g2""
Command1=""<%AppPath%>\cores\ffmpeg" -y -i "<%InputFile%>" -pass 2 -passlogfile "<%TemporaryFile%>" -async 1000 -bitexact -vcodec mpeg4 -s 400x240 -r 15 -b 300 -acodec aac -ac 2 -ar 44100 -ab 48 -f 3gp "<%TemporaryFile%>.3g2""
Command2=""<%AppPath%>\cores\QT3GPPFlatten" "<%TemporaryFile%>.3g2" "<%TemporaryFile%>_2.3g2" -c QT3GP2_WQVGA500.ini"
Command3="rm "<%TemporaryFile%>-0.log""
Command4="rm "<%TemporaryFile%>.3g2""
Command5=""<%AppPath%>\cores\ATOMChanger" "<%TemporaryFile%>_2.3g2" "<%OutputFile%>.3g2" "Add_mfra.ini""
Command6="rm "<%TemporaryFile%>_2.3g2""

【質問内容(詳しく詳細に)】
:サイトで拾ってきた上記設定で動画変換君に動画をD%Dし、変換が終わると
QTの「3Gエクスポート設定」なるものが表示されるのですが、
どんな映像ソース(WMV・VOB・avi・MPEG1を試してみました)
を使っても音声が出力されません。ビデオフォーマットの欄は「MPEG4」
と表示されるのですが、オーディオ欄は「なし」と出ます。
PCでも携帯でも再生できますが、やはり音がでません。
動画変換君・QTの再インストールをしてみた物の状況は改善せず・・・。
何か他に確認すべき事項はあるでしょうか?

  • そのiniにある-s 400x240  を-s 320x240に戻せば出来るはず -- メッシュ? 2006-04-02 (日) 11:05:45
  • QT3GP2_WQVGA500.iniがcoresフォルダに無い。 -- マサト? 2006-04-02 (日) 11:31:54
  • QTが7以降だとオーディオ欄は"なし"になります、QTを6.5.2にするか、QT3GP2_WQVGA500.iniを変更しましょう。 -- ('A`) 2006-04-02 (日) 15:28:10
  • メッシュさんの言う通り320×240設定にしましたが改善しませんでした。マサトさんに言われcoresフォルダを探した所QT3GP2_WQVGA500.iniが見当たらず(QT7)、('A`)さんの言う通りQT6,5,2をインストールしてみた所ようやっと改善されました。どの設定でも音が出ました!。皆様本当に有難う御座いましたm( _ _ )m -- 野郎? 2006-04-02 (日) 16:05:42

ASFについて

(2006-04-01 (土) 23:44:39)

【使用中の機種】
:V903SH
【使用中ini設定】
:Transcoding_SD-VIDEO.ini
【質問内容(詳細に)】
:ASFファイルに変換するときにASFファイルのヘッダ部に空き領域を作りたいのですが、どのようにすればよいでしょうか?

変換時間

k・k? (2006-04-01 (土) 18:02:56)

【使用中のOS】
:WindowsXP
【使用中の機種】
:W21CA
【使用中ini設定】
Command0=""<%AppPath%>\cores\ffmpeg" -y -i "<%InputFile%>" -pass 1 -passlogfile "<%TemporaryFile%>" -async 1000 -bitexact -vol 384 -vcodec xvid -mbd 2 -4mv -trell -aic -s 400x240 -r 15 -b 700 -acodec aac -ac 2 -ar 48000 -ab 80 -f 3gp -muxvb 64 -muxab 48 "<%TemporaryFile%>.3g2""
Command1=""<%AppPath%>\cores\ffmpeg" -y -i "<%InputFile%>" -pass 2 -passlogfile "<%TemporaryFile%>" -async 1000 -bitexact -vol 384 -vcodec xvid -mbd 2 -4mv -trell -aic -s 400x240 -r 15 -b 700 -acodec aac -ac 2 -ar 48000 -ab 80 -f 3gp -muxvb 64 -muxab 48 "<%TemporaryFile%>.3g2""
Command2=""<%AppPath%>\cores\QT3GPPFlatten" "<%TemporaryFile%>.3g2" "<%TemporaryFile%>_2.3g2" -c QT3GP2_WQVGA500.ini"
Command3="rm "<%TemporaryFile%>-0.log""
Command4="rm "<%TemporaryFile%>.3g2""
Command5=""<%AppPath%>\cores\ATOMChanger" "<%TemporaryFile%>_2.3g2" "<%OutputFile%>.3g2" "Add_mfra.ini""
Command6="rm "<%TemporaryFile%>_2.3g2""

【質問内容(詳細に)】
:最高画質を追求するという項を参考にして、「-mbd 2 -4mv -trell -aic 」を追加してみたのですが、変換時間が追加前とあまり変わりません。

このオプションが正しく使えていれば、変換時間が5倍になるそうなので、
ini設定がおかしければご指摘よろしくおねがいします。

  • ん〜 それを追加するなら、2passを入れる意味は無いと思う。 -- メッシュ? 2006-04-01 (土) 18:53:09
  • 画質なら1Passにして"-b 700"を"-qscale 2"でいいかと。W21CAなら再生追従も問題ないし。サイズはWQVGA30分で100M前後に落ち着く -- 匿名希望? 2006-04-01 (土) 20:02:40

無題

NINO? (2006-04-01 (土) 13:23:09)

【使用中のOS】
WindowsXP
【使用中の機種】
vodafone V603SH
【使用中ini設定】
Transcoding.ini
【質問内容(詳細に)】
携帯の機種は関係ないのですが、
T>Cannot load avisynth.dll
T> (HE-AACファイル/映像・音楽ファイルをHEAAC(音のみ48k)に変換する)
E>"C:\Documents and Settings\Owner\デスクトップ\3GP_Converter034\3GP_Converter034\3GP_Converter034\cores\ffmpeg" -y -i "-bitexact -vn -ac 2 -ar 44100 -f wav "C:\DOCUME~1\Owner\LOCALS~1\Temp\A551111A-E08E429C-1B139BFA-DF22FD2E.wav"
ffmpeg version CVS, build 4759, Copyright (c) 2000-2004 Fabrice Bellard

 configuration:  --enable-mp3lame --enable-faac --enable-faad --enable-amr_nb --enable-amr_wb --disable-ffplay --enable-small --enable-memalign-hack --enable-gpl --enable-xvid --enable-dts --enable-a52 --disable-vhook --enable-pthread --enable-x264 
 built on Dec  1 2005 17:25:10, gcc: 3.4.4 (cygming special) (gdc 0.12, using dmd 0.125)

Input #0, mp3, from :

 Duration: 00:03:36.0, start: 0.000000, bitrate: 191 kb/s
 Stream #0.0: Audio: mp3, 44100 Hz, stereo, 192 kb/s

Output #0, wav, to 'C:\DOCUME~1\Owner\LOCALS~1\Temp\A551111A-E08E429C-1B139BFA-DF22FD2E.wav':

 Stream #0.0: Audio: pcm_s16le, 44100 Hz, stereo, 1411 kb/s

Stream mapping:

 Stream #0.0 -> #0.0

Press [q] to stop encoding
video:0kB audio:36981kB global headers:0kB muxing overhead 0.000116%
E>"C:\Documents and Settings\Owner\デスクトップ\3GP_Converter034\3GP_Converter034\3GP_Converter034\cores\aacenc32"-cbr 48 -profile HE "C:\DOCUME~1\Owner\LOCALS~1\Temp\A551111A-E08E429C-1B139BFA-DF22FD2E.wav" "C:\DOCUME~1\Owner\LOCALS~1\Temp\A551111A-E08E429C-1B139BFA-DF22FD2E.aac"
A>Dialog : 処理実行中にエラーが発生しました [Error:-1066598274]
T>Finished.

  • と出てきて変換が完了しません。原因は恐らくTranscoding.iniだと思うのですが、解決方法がわかりません。ご教授願います。 -- NINO? 2006-04-01 (土) 13:24:59
  • HE-AACを使ってるんだよな?多分http://techno.ne.jp/mmbbs/tools.php から8ballをDLして、その中にあるファイルを変換君のcoresフォルダに突っ込んでもう一回試してみてください。 -- メッシュ? 2006-04-01 (土) 14:09:16
  • V603SHで再生するばあいAACはできなかったんじゃないのかな? -- *? 2006-04-02 (日) 01:12:24
  • AAC音声の動画を再生できないだけだよ。 -- 2006-04-02 (日) 15:45:39
  • 質問内容の1行目に"携帯の機種は関係ないのですが、"と書いてあるからV603SHで再生するわけではないのでしょう。 -- ('A`) 2006-04-02 (日) 16:15:07
  • aacenc32があたらしすぎるとか? -- ??? 2006-04-03 (月) 13:49:09
  • dllじゃなくてexeの方ですm(_ _)m。 -- ??? 2006-04-03 (月) 13:50:23
  • aacenc32"と-cbrの間にスペースが無い。 違う? -- 2006-04-05 (水) 00:06:23

できるでしょうか

わいど? (2006-03-31 (金) 23:55:12)

W41Hを使っていますが、WQVGAの動画には対応していないのでQVGAをジャストワイド(四隅を引き伸ばす設定)で全画面表示させています。しかし、四隅の不自然さはどうしても気になります。そこで思ったのですが、QVGAは320×240でWQVGAは400×240ですから,変換君で動画を変換する際に縦方向はそのままに、横方向を4/5に圧縮するのはどうかと考えたのです。そうすればW41Hで再生させるときに、フルワイド(横に均等に引き伸ばす設定)で再生させれば横方向に5/4で引き伸ばされますから自然になるはずです。確かに少し荒くはなるでしょうがパノラマワイド(全体を引き伸ばす設定)で見るよりはましなはずです。この処理を変換君でなんとかやってもらう方法はないものでしょうか?これができるようになればなかなか重宝されるんじゃないかと個人的には思うのですが・・ わかる方教えていただけませんか?長文ですみません。

  • http://www.nurs.or.jp/~calcium/wiki/index.php?ffmpeg%20usage 読めばわかる。 -- 2006-04-01 (土) 00:31:55
  • W41Hは全画面(400*240)で再生させると元がどんな綺麗な映像でも… -- 匿名希望? 2006-04-01 (土) 06:23:43
  • 16:9の動画が拡大すると画面にフィットするけど、それで再生させた映像は観るに耐えないわな -- 匿名希望? 2006-04-01 (土) 06:26:04
  • 確かにそうですね。でも横にだけ引き伸ばせばす設定なら全画面でも耐えられると思ったんです。 -- わいど? 2006-04-01 (土) 12:56:12
  • 少し苦労しましたができるようになりました。なかなかいいですね〜 とにかく大きい画面で見たい方にはお勧め。 -- わいど? 2006-04-01 (土) 15:48:43
  • あなたの質問と回答者のやりとりは、今後同じ疑問を持つ人を助けることになります -- 2006-04-02 (日) 01:13:48
  • 回答を受けた後「試してみます」とだけ書いて放置せず、責任を持って結果を報告してください -- 2006-04-02 (日) 01:14:14
  • とここのページのトップに書いてますが・・・ -- 2006-04-02 (日) 01:14:49
  • そうですね。結果としては成功です。詳細に説明すると長くなるので雑談版のほうで報告しますね。 -- わいど? 2006-04-03 (月) 03:37:14
  • 書き込んでおきました。よかったら使ってみてください。 -- わいど? 2006-04-03 (月) 15:01:40
  • おつかれさまです -- *? 2006-04-03 (月) 19:51:10

教えて下さいm(_ _)m

あり? (2006-03-30 (木) 21:07:53)

シーンチェンジ検出はどこに入れればいいのか設定の仕方がわかりません

http://p02.fileseek.net/cgi-bin/p.cgi?uR=www.nurs.or.jp%2F%7Ecalcium%2Fwiki%2Findex.php%3FTranscoding.ini%25A5%25AB%25A5%25B9%25A5%25BF%25A5%25DE%25A5%25A4%25A5%25BA&sZ=15
にも書いてなかったのでお願いします。

  • 自分で試せよ。話はそれからだ -- メッシュ? 2006-03-30 (木) 21:29:14
  • 試しましたが設定がわかりません -- あり? 2006-03-30 (木) 21:40:52
  • なんでわざわざファイルシークなのさ?PCじゃ見れないじゃないか。 -- ('A`) 2006-03-30 (木) 22:38:53
  • http://www.nurs.or.jp/~calcium/wiki/index.php?ffmpeg%20usageこれでいいですか?? -- あり? 2006-03-30 (木) 22:52:22
  • 多分-sc_threshold 任意の数値 でOK -- メッシュ? 2006-03-30 (木) 23:18:57
  • ↑のやつを自分で試した結果・・・・・・やり方が悪いのか分からんが、バイナリエディタで比較したが、変化無し・・・・・orz -- メッシュ? 2006-03-30 (木) 23:28:30
  • そうなんですよ! 変化が全くないのですよ!だから質問させていただきました。 -- あり? 2006-03-30 (木) 23:53:32
  • じゃぁこのコマンドは-qnsと同じように無意味なコマンドだったって事だろうな。 -- ('A`) 2006-03-31 (金) 00:36:57
  • ffmpegの仕様が変わってるとか? -- メッシュ? 2006-03-31 (金) 10:09:34
  • あまり高い数値ではエラーがでるようです -- あり? 2006-04-01 (土) 00:07:08

WMV変換

レベッカ? (2006-03-30 (木) 18:05:35)

【使用中のOS】
:WindowsXP Professional
【使用中の機種】
:自作機
【使用中ini設定】
:Transcoding_PSP.ini
【質問内容(詳細に)】
Avisynth2.5をいれ
http://www.pspwiki.to/index.php?%CA%D1%B4%B9%B7%AF#content_1_16
の「LoadAviUtlInputPluginでds_input.auiを利用して入力」
に書いてあるとおりにしたのですが
[avs @ 0x7e0ab4]failed to open avs : LoadPlugin: unable to load "D:\Program Files\AviSynth 2.5\warpsharp.dll"(D:\DOCUME~1\\LOCALS~1\Temp\F74706F8-D1B2207C-433A744E-DF11F68C.avs, line 1)
D:\DOCUME~1\\LOCALS~1\Temp\F74706F8-D1B2207C-433A744E-DF11F68C.avs: Error while opening file

と出て変換できません
助けてくれたらありがたいです
A>Dialog : 処理実行中にエラーが発生しました [Error:1]
T>Finished.

  • 書きミスしてるよorz -- レベッカ? 2006-03-30 (木) 18:07:10
  • うーん、普通に変換してみた? -- メッシュ? 2006-03-30 (木) 21:30:11
  • 普通とは??普通にやったつもりですが -- レベッカ? 2006-03-31 (金) 10:54:55
  • 普通は、Avisynth2.5入れたら他の形式と同じようにドラックアンドドロップするだけで変換できる -- 2006-03-31 (金) 15:12:53
  • ドライブ名が変なせいかもしれません。DにインストールしたXPが今はFになってますから。 -- レベッカ? 2006-03-31 (金) 21:12:16
  • http://www.nurs.or.jp/~calcium/wiki/index.php?Avisynth%A4%F2%BB%C8%CD%D1%A4%B7%A4%C6%C6%C9%A4%DF%B9%FE%A4%E0を見てスクリプトファイルを書いたほうがいいと思う。 -- マサト? 2006-03-31 (金) 22:03:22
  • avsの記述が間違ってるんだろ 既に読み込んでるのにもう1度プラグイン読ませようとしてるとか、プラグインがフォルダに無いとか -- 2006-04-01 (土) 14:30:24
  • 解決しました。やっぱりプラグインを二回読み込ませていたようです。ありがとうございました。 -- レベッカ? 2006-04-03 (月) 22:50:55

128

おれ? (2006-03-30 (木) 16:41:35)

変換しようとしたらError:128と出たんです。「質問する前に」を読んだのですが、Error:1073741571などの解決策はあったのですが、Error:128の解決策がありません。Quick Time Playerも最新版をインストールしました、誰か同じ問題を抱えている人はいませんか?
もしくは解決策を知っている方がいれば教えていただけないでしょうか

  • ( ´,_ゝ`)QT6.2.5だっけ?あれでやったら?必ずしも最新版がいいともいえないしね -- 名無し( ´,_ゝ`)プッ。? 2006-03-30 (木) 20:30:26
  • 僕もQT6.5.2+Alt1.33です。。。QT7で動画編集すると音がずれる。 -- 2006-03-31 (金) 09:56:12
  • とりあえずテンプレに沿って書いたらどうだ --     ? 2006-03-31 (金) 10:56:13

著作権について

サザエ? (2006-03-30 (木) 15:58:15)

【使用中のOS】
:Windows98
【使用中の機種】
:W21T
【使用中ini設定】
:Title=著作権解除
Command0=""<%AppPath%>\cores\ATOMChanger" "<%InputFile%>" "<%OutputFile%>著作権無し.3g2" "Camouflage_MOVIE_for_W21T.ini""
【質問内容(詳細に)】
:著作権を解除すると、どんな良いことがあるんですか?
あと、上のiniは質問専用板19に載ってたやつのW32SってとこをW21Tに変えたんですけど、これで出来ますか?

  • 別に著作権解除してもそこまでいいことはないのでそのままで十分なら必要ないと思われ -- 2006-03-30 (木) 16:35:12
  • 本体⇔SD移動ができるとなんとなく落ち着く。(ワラww -- 2006-03-31 (金) 09:58:40

トップ   編集 凍結 差分 バックアップ 添付 複製 名前変更 リロード   新規 一覧 単語検索 最終更新   ヘルプ   最終更新のRSS
Last-modified: 2008-03-20 (木) 01:45:21 (4278d)