2014/02/27 3:50:14 ffmpeg version N-60862-g3f3d748 Copyright (c) 2000-2014 the FFmpeg developers 2014/02/27 3:50:14 built on Feb 25 2014 03:29:12 with gcc 4.8.2 (GCC) 2014/02/27 3:50:14 configuration: --prefix=/mingw/i686-w64-mingw32 --enable-version3 --enable-gpl --enable-nonfree --enable-avisynth --enable-libfdk-aac --enable-libmp3lame --enable-libx264 --enable-librtmp --enable-runtime-cpudetect --disable-ffplay --disable-ffprobe --disable-ffserver --disable-doc --disable-htmlpages --disable-manpages --disable-podpages --disable-txtpages --enable-cross-compile --target-os=mingw32 --arch=x86 --enable-w32threads --extra-cflags='-O3 -march=i686 -mfpmath=sse -msse2 -fomit-frame-pointer' --extra-libs='-lrtmp -lpolarssl -lwinmm -lws2_32 -lgdi32' --extra-ldflags=-static 2014/02/27 3:50:14 libavutil 52. 65.100 / 52. 65.100 2014/02/27 3:50:14 libavcodec 55. 52.102 / 55. 52.102 2014/02/27 3:50:14 libavformat 55. 33.100 / 55. 33.100 2014/02/27 3:50:14 libavdevice 55. 10.100 / 55. 10.100 2014/02/27 3:50:14 libavfilter 4. 1.103 / 4. 1.103 2014/02/27 3:50:14 libswscale 2. 5.101 / 2. 5.101 2014/02/27 3:50:14 libswresample 0. 18.100 / 0. 18.100 2014/02/27 3:50:14 libpostproc 52. 3.100 / 52. 3.100 2014/02/27 3:50:14 Guessed Channel Layout for Input Stream #0.1 : stereo 2014/02/27 3:50:14 Input #0, dshow, from 'video=FFsource:audio=AmaRec Audio Capture': 2014/02/27 3:50:14 Duration: N/A, start: 9052.827000, bitrate: 1536 kb/s 2014/02/27 3:50:14 Stream #0:0: Video: rawvideo (NV12 / 0x3231564E), nv12, 640x360, 30 tbr, 10000k tbn, 30 tbc 2014/02/27 3:50:14 Stream #0:1: Audio: pcm_s16le, 48000 Hz, stereo, s16, 1536 kb/s 2014/02/27 3:50:14 Guessed Channel Layout for Input Stream #1.0 : stereo 2014/02/27 3:50:14 Input #1, dshow, from 'audio=⎹㡦⎪ 夯⎵㎼ (Conexant SmartAudio ': 2014/02/27 3:50:14 Duration: N/A, start: 9052.867000, bitrate: 1411 kb/s 2014/02/27 3:50:14 Stream #1:0: Audio: pcm_s16le, 44100 Hz, stereo, s16, 1411 kb/s 2014/02/27 3:50:14 Unknown encoder 'libvo_aacenc'


ȥå   Խ ʬ Хåå ź ʣ ̾ѹ   ñ측 ǽ   إ   ǽRSS
Last-modified: 2014-02-27 () 03:52:02 (2892d)