質問専用掲示板37

利用上の注意

  • 質問する人は……
    • 質問する前に必ず下記のことを実行してください。 1. 質問する前にを読んでください。 2. 携帯動画変換君 に同梱の Readme.txt を読んでください。 3. オプションの挿入などを聞く前に自分で試してから聞きましょう。
    • その上で質問を書き込む場合は……
      • 回答者はボランティアです、期待に添える回答が必ず得られるとは限りません。
      • 質問は必ずテンプレートを使って「何をどうしたらどうなった」と具体的に記入して下さい。
    • あなたの質問と回答者のやりとりは、今後同じ疑問を持つ人を助けることになります。
      回答を受けた後「試してみます」とだけ書いて放置せず、責任を持って結果を報告してください。
  • 回答する人は……
  • できる限り下記についてご留意下さい 1. 質問者に対する肯定的な態度 2. 良心的なフォロー 3. このサイトの目的であるナレッジベースとしての役割 4. 回答の根拠となった情報の所在をリンクで示す 5. 頻出する回答をまとめて資源の節約

テンプレート

"質問用テンプレートを必ず使ってください!!使わないと解りにくい文章が多数のためレスが付きにくいです!!" ↓これを必ず使ってください!


【使用中のOS】 : 【使用中の携帯・プレイヤー】 : 【使用中transcodingの名前】 : 【質問内容(詳細に、見やすく)】 :

掲示板

利用上の注意は必ず読んでください
自分でやれることはしっかりやること!
それでも分からなかったら『質問する前に』を見ましょう
 〜作者さんの意向で、質問板の最大サイズは8388608バイト規制となっています。  過去の質問板の上の方に書かれた方、現在規制で書き込みできません。納得出来ない方は、ここでもう一度書き込みしてください。〜

911Tの着うた作成が途中でとまります。

豚足? (2008-08-09 (土) 14:41:46)

【使用中のOS】 Windows Xp
【使用中の携帯・プレイヤー】 PC・WMPlayer
【使用中transcodingの名前】  Transcoding_SB911T.ini
【質問内容(詳細に、見やすく)】
Transcoding_SB911T.iniを使用してmp3から着うたを作成したいと思いますが
(Camouflage_copy.iniとsamr_w21t.exeとmp4creator60.exe導入済)

Unable for find a suitable output format for 'mp3'というエラーが出てしまい、
変換の途中で止まってしまいます(911Tの着信音登録−下記の設定で〜でも同一のエラーが出ました)何が悪いのかお手上げなので助けてください。


video:0kB audio:648kB global headers:0kB muxing overhead 4.767743%
E>"C:\3GP_Converter034\cores\ffmpeg" -t 1 -y -i "C:\b.mp3" -bitexact -acodec mp3 -ac 1 -ar 16000 -vol 0 -ab 16 "C:\DOCUME~1\xxxx\LOCALS~1\Temp\F84470CF-EB2317A3-F8851722-FACF6809_1.mp3"
FFmpeg version SVN-r9133, Copyright (c) 2000-2007 Fabrice Bellard, et al.

 configuration: --enable-gpl --enable-pp --enable-swscaler --enable-pthreads --enable-liba52 --enable-avisynth --enable-libamr-nb --enable-libamr-wb --enable-libfaac --enable-libfaad --enable-libgsm --enable-libmp3lame --enable-libnut --enable-libogg --enable-libtheora --enable-libvorbis --enable-x264 --enable-xvid --cpu=i686 --enable-memalign-hack --extra-ldflags=-static --enable-dirac
 libavutil version: 49.4.0
 libavcodec version: 51.40.4
 libavformat version: 51.12.1
 built on May 27 2007 19:45:44, gcc: 4.2.0

Input #0, mp3, from 'C:\b.mp3':

 Duration: 00:01:30.2, start: 0.000000, bitrate: 127 kb/s
 Stream #0.0: Audio: mp3, 44100 Hz, stereo, 128 kb/s

Unable for find a suitable output format for 'mp3'
A>Dialog : 処理実行中にエラーが発生しました [Error:1]
T>Finished.


MP4のファイルサイズ制限?

KK? (2008-04-27 (日) 22:54:28)

【使用中のOS】 : Windows Vista Home Premium
【使用中の携帯・プレイヤー】 : PC・WMPlayer
【使用中transcodingの名前】 : Transcoding_PS3.ini
【質問内容(詳細に、見やすく)】
Transcoding_PS3.iniを以下のように変更しています。
Command0=""<%AppPath%>\cores\ffmpeg" -threads 0 -y -deinterlace -i
"<%InputFile%>" -title "<%Title%>" -timestamp "<%TimeStamp%>" -vcodec
libx264 -s 1920x1080 -r 29.97 -b 10000k -qmin 10 -acodec libfaac -ac 2

  • ar 48000 -ab 96k -vol 300 -f mp4 "<%OutputFile%>.MP4""

     (ffmpegのrevisionは12920、下位revisionでも同様)

     どうもmp4(H.264、AAC)のファイル容量には制限があるようです。
     ビットレート(-b)を8000K〜10000Kに変えて試したのですが、出力ファイル
     が4GB未満だとOK、4GB以上だとNGとなります。(〜3.99GB:OK、4.04GB〜:NG)
     #ソースはavi(HuffyYUV、PCM)です。LOG上では、ffmpegは正常終了してい
      ます。

     NG内容は、WMPlayerで再生不能、真空波動研SuperLiteでは[trackが1つも
     ありません]となります。
     
     ちなみにNGのファイルでもQuickTimePlayerならば再生できました。
     ffmpegの処理に特に問題はないようですし、4GB以上のmp4ファイルは基本
     的には再生不能なのでしょうか?
  • 投稿者です。 申し訳ありません。 ここは携帯端末向けの変換について質問する場ですね。しかも、間違って古い掲示板に書いてしまいました。 削除していただいてかまいません。 -- KK? 2008-04-27 (日) 23:33:30

Vistaにしたら動きません。

VAPE? (2007-04-16 (月) 11:27:19)

【使用中のOS】
:windows Vista
【使用中の携帯・プレイヤー】
:so903i
【使用中transcodingの名前】
:
【質問内容(詳細に、見やすく)】
PCをVistaに変更後VOBファイルを携帯君にドロップ出来なくなり困っています
PC音痴にも解るように説明していただけたらさいわいです。
よろしくお願いします。

  • なら、具体的な解決策が出るまでHDDにパーテーション組んでデュアルブートでがんばってみたら? vistaは出たばっかりだから問題だらけだろうし… -- 2007-04-16 (月) 12:35:42
  • 質問する前にを読め -- 2007-04-16 (月) 15:41:13
  • VistaはC\program files以下ではソフト側から新しくファイルを作ることができないのでTranscoding.iniを作ることができません。それが原因のようです。この場合は最初から0バイトのTranscoding.iniを作成しておけば大丈夫です。 -- あると? 2007-04-16 (月) 18:35:20 コメントありがとございました(*^_^*) >HDDにパーテーション組んでデュアルブート・・・ 初めて聞く言葉でして(;一_一) PC初心者にはハードル高いですね(汗) 頑張ってみます。 ありがとうございました( ..)φメモメモ -- VAPE? 2007-04-16 (月) 13:15:03
  • デュアルブート自体はさほど難しくないと思いますよ。 -- おくさん? 2007-04-16 (月) 19:14:10
  • パテーション分けなくても、HDD追加すればおkだに〜あぁ関係〜ねぇ〜 -- 2007-04-16 (月) 23:18:48

ドロップ

ちょーた? (2007-04-15 (日) 21:09:25)

【使用中のOS】

Windows Vista Home Premium

【使用中の携帯・プレイヤー】

:

【使用中transcodingの名前】

:

【元の動画のコーデック】

:flv

【質問内容(詳細に、見やすく)】

ここにファイルをドラッグ&ドロップとあるんですが、
なぜかファイルをドラッグしてもバツになってドロップできません。
何がいけないのかさっぱり見当つかずです。回答お待ちしてます。

  • あなたには、まだ変換君は早すぎます。大人になったら又おいで〜 -- 2007-04-15 (日) 21:37:08
  • このページの質問くらいは見て欲しかったが…下の方にVistaでD&Dできないという報告(というか不具合)があります。俺のVista機ではそういった不具合は起きていないですが環境によって不具合が発生するようです。今のところはXPで使うのが妥当です。 -- ('A`) 2007-04-15 (日) 21:39:43
  • Vistaユーザーをよく見かけるようになりましたが、不具合報告絶えないですね。とりあえずUACは無効にしていますか?XP環境があるならそれを使うのが一番ですが、やむを得ずVistaを使うならいろいろ試してみてください。 -- 2007-04-15 (日) 21:57:50

対応ですかねw

さとーず? (2007-04-15 (日) 17:27:28)

【使用中のOS】
 Windows Vista Home Premium
【使用中の携帯・プレイヤー】
:
【使用中transcodingの名前】
:
【質問内容(詳細に、見やすく)】
ビスタって対応してるんでしょうか・・・
↑初歩的な質問で申し訳ありません・・・泣

  • 動くだろうけど、トラブルがあるらしい。↓を見るのじゃ。 -- 2007-04-15 (日) 18:27:53
  • してますw -- 2007-04-15 (日) 18:28:22
  • 俺の友人がVista購入したんで「変換君動かないらしいよ」て言ったら「え、動いたけど」と返された、対応OS欄に9x系で動くかもしれません的な事が書いてるけどMEでは完全に動作するの確認したし、Vistaも大丈夫なのかなぁとは思う、ただQuickTimeの方が対応していないんだっけ? -- 2007-04-15 (日) 18:53:00
  • デュアルブートで乗りきるのだ。 -- 2007-04-15 (日) 19:00:23
  • 自分はVistaUltimate32を使ってる。QT6.x(今自分が使ってる携帯が7.xと相性悪いのであえて旧バージョン)と、XPからそのまま移植した変換君の環境で使ってますが、不具合が出たことはないです。UACは有効にしていますが特に問題なしです。今Vistaでうまくいってない人もその辺の設定を変えれば普通に動くと思いますよ -- 2007-04-15 (日) 20:01:25

911Tについて

てるみー? (2007-04-15 (日) 11:59:14)

【使用中のOS】
:windowsXP Home
【使用中の携帯・プレイヤー】
:911T
【使用中transcodingの名前】
:Transcoding_XviD_AAC_911T.iniなど
【質問内容(詳細に、見やすく)】
:「QT_3GPP(MobileMP4)_VGA_AAC.iniをcoresフォルダに入れてください。」と書いてありますが、具体的にどうすればいいのでしょうか。右クリックで対象を保存をしてもテキストファイルになってしまします。
よろしくお願いします。

  • ん〜、それが分からないとなると説明は難しいな。拡張子が.iniになってなかったらこれに変更して。なってるならそのままファイルを移動すればいい。移動の方法まで分からなかったらココではカバーできませんのでご自分で調べてください。思いっきりPCの基礎ですから -- 2007-04-15 (日) 12:34:31
  • 保存場所を3GP_Converter034\coresに指定すれば良い。 -- てつ? 2007-04-15 (日) 13:30:43
  • 拡張子が.iniへの変更方法が分からないかったのでcoresフォルダの中の構成設定の1つをQT_3GPP(MobileMP4)_VGA_AAC.iniの内容に変えたらできました!コレで大丈夫なのでしょうか? -- てるみー? 2007-04-15 (日) 23:16:54
  • 中身替えたってファイル名が変わってなければ反映されない。田中って奴に鈴木って呼んでも反応しないでしょ? つまり、ファイル名ごとかえればいい。ただ、消した内容によっては今後の差し支えになる。とりあえず、問題が出てくるまでPCの基礎を頭に叩き込みなさい。後、ファイル名変更はPCの基礎中の基礎だから自分で調べるように ってか、基礎を理解したうえでここは話が進められるんだから、分からないうちはデフォルト状態で使えるものを探したほうが無難ですよ-- 2007-04-15 (日) 23:29:31

無題

けんと? (2007-04-15 (日) 00:08:27)

【使用中のOS】
:windows XP
【使用中の携帯・プレイヤー】
:SB 705SH
【使用中transcodingの名前】
:【質問内容(詳細に、見やすく)】
:
MP3ファイル(フル)をHE−AACに変換してみたんですが
音の質などをおとして曲が途切れたり部分的ではなく
フルのまま300KBにするにはどうすればいいでしょうか?
誰か教えてください。
御返事お待ちしております。

  • HE-AACのカスタマイズのところを見て。でもいくらなんでも300KBじゃ音質悪いよ。アップロードやメールへの添付は著作権違反ですので・・・。 -- 2007-04-15 (日) 00:15:23
  • microSDを買うまでこれで我慢しようと思ってます。 -- けんと? 2007-04-15 (日) 00:18:24
  • すいません。ミスりました。microSDに変換して直にいれられるんですが、今microSDがないため買うまでこれで我慢する予定です。ありがとうございました。ためしてみます。 -- けんと? 2007-04-15 (日) 00:21:08
  • 1曲4分と考えた場合300KBに収めるためには10kbpsにしないといけませんので音質的にも最悪だと思います。それにHE-AACの下限ビットレートを下回ってるような・・・普通にPCからいれるのでは問題あるんですか? -- 2007-04-15 (日) 00:22:20
  • おっとタッチの差で書き込まれてしまいました。まぁ結論としては300KBに収めるのはほぼ全ての曲で無理だと思いますので諦めましょう。 -- 2007-04-15 (日) 00:24:30
  • 私が使ってる掲示板でHE-AACに変換して300KBで貼ってる人がいるんですが、音は多少悪いものの300KBにしては音がよかったです。普通にPCからいれる方法がよくわからなくて・・・すいません。詳しくないもので・・・ -- けんと? 2007-04-15 (日) 00:27:51
  • 提示板からのDL、提示板などへのUPは著作権違反になりますので行わないでください。/ そもそもHE-AACは下限ビットレートが16kbpsなので無理ですよ。 -- ('A`) 2007-04-15 (日) 00:31:16
  • とりあえずmicroSDを早めに購入することをオススメします。 -- ('A`) 2007-04-15 (日) 00:32:33
  • 音は多少、って… 300KBなんて人間の聞く音質じゃないと思いますが。おまけに思いっきり著作権法違反してますし。 -- 2007-04-15 (日) 11:29:38
  • 掲示板等での違法ファイルの利用はやめてください。完全に著作権違反ですし、あなたのような方への対策として各キャリアが自作ファイルへの規制を強めているわけです。規制が強まると変換君も使いづらくなるばかりです。/300KBでHE-AACというのは間違いでしょう。それぐらいの低レートになると基本的にSBR部分を付加できず、AAC-LCになります。 -- 2007-04-15 (日) 16:35:45
  • まぁ、自分で作曲した曲のmp3ファイルかもしれないし(そりゃねぇか)w -- 2007-04-16 (月) 03:32:40
  • ビットレートを10〜7にし、偽装してビットを48にすれば問題なし -- アリス? 2010-10-04 (月) 21:45:40

auでストリーミング

tak? (2007-04-14 (土) 22:09:44)

【使用中のOS】
:windows XP home
【使用中の携帯・プレイヤー】
:au w43s
【使用中transcodingの名前】
:3gp2は全て
【元の動画のコーデック】
:MPEG1
【質問内容(詳細に、見やすく)】
:webにアップした動画をストリーミングで見れるようにしたく、
3gp2に変換後アップし、タグで埋め込みました。
PCのブラウザではストリーミングで観れるのですが
携帯ではストリーミング時には『ショートストリーミングデータが正しくありません。』と
ダウンロード時には『ダウンロードデータ』が正しくありません。と~
出てしまいます。


これも原因?追記。
2.7MBのMPEG1を500KBの3gp2に変換しました。。
何故か音声データが音声が無くなってしまいます
QTを使っても『ソースムービーにオーディオトラックがありません』となります。

  • タグは正しく書いていますか?俺自身webにUPしてDLしようと思ったことがないのでやった事はないんだけれどここにタグに関しての記載があるから確認してみては? -- ('A`) 2007-04-14 (土) 22:22:46
  • ありがとうございます。もう一度勉強し直してみます。また御願いしますm(_ _)m -- tak? 2007-04-15 (日) 00:11:43

SH903iでのファイル参照方法

らいおんまる? (2007-04-14 (土) 20:31:30)


【使用中のOS】~
:windows xp homeediton sp2
【使用中の携帯・プレイヤー】
:SH903i
【使用中transcodingの名前】
:
【元の動画のコーデック】
:flv.
【質問内容(詳細に、見やすく)】
:youtubeの動画を3GGP形式に変換し、カードリーダーで
 sd_videoのフォルダに入れましたが携帯電話でどの様に
 何処のフォルダを参照して、再生してよいのか分かりません。
 教えてください。
 よろしくお願いします。

  • なんでSH903iのページ見ないの? -- 2007-04-14 (土) 20:49:28
  • データBOX→iモーション→カメラフォルダ -- てつ? 2007-04-14 (土) 21:01:24
  • インポートに入れてみるのもあり -- 2007-04-14 (土) 21:23:27
  • パソコンでインポートフォルダに入れたら解決しました。有難うございました。 -- らいおんまる? 2007-04-14 (土) 21:34:05

字幕

ズキ? (2007-04-14 (土) 20:19:31)

携帯で字幕映画をみたいのですが字幕の付け方がわからません どうしたらいいのてしょうか?

  • このWikiのトップページの一番下を読みなさい。 -- ('A`) 2007-04-14 (土) 20:22:07

400×240表示で動画を再生したいです!

pマニア? (2007-04-14 (土) 14:33:27)

【使用中のOS】
:XP
【使用中の携帯・プレイヤー】
:P903ITV
【使用中transcodingの名前】
:Transcoding_3GPP_AAC_XviD.ini
【質問内容(詳細に、見やすく)】
:400×240表示の動画で再生したいです!
W44Sみたいにバイナリエディッタを使用しての強制フルスクリーン方法は無いのですか?
ワンセグは400×240で表示しているのに…。

  • ワンセグはほとんど180x320だよ?W44SだってQVGAを無理やりワイドにしてるだけ。 P903iTVなら240x400いけるかもな〜普通に解像度の所をいじってみては?-- 2007-04-14 (土) 15:56:00
  • 撮影最大解像度が320x240なので400x240は対応していないと思います。諦めましょう。 -- ('A`) 2007-04-14 (土) 17:32:10
  • pマニアさんと同じ症状かな…?フル240×400にならないなぁ〜ワンセグは可能! -- Pマニア2? 2007-04-15 (日) 23:14:34

添付についてお尋ねしたいのですが。

? (2007-04-14 (土) 08:46:33)

使用中のOS】
:win2000
【使用中の(携帯)機種】
:w31h
【使用中ini設定】
:
【質問内容(詳細に)】
:動画を携帯メールに添付可能にしたいのですが、可能でしょうか?
どうしても添付可能にしようとすると音のみとかばっかりなので。

  • 可能です。著作権を外すだけ。変換君でできる掘り出し物の設定ファイルがあった。さがしてみ〜 -- 2007-04-14 (土) 12:37:47
  • ただし、著作権のある動画を添付したら著作権違反になりますのでご注意ください。 -- ('A`) 2007-04-14 (土) 17:33:04
  • 「さがしてみ〜」と言われて探してはいるのですが、中々見つからないのですが……。一応著作権侵害とまで行かない様には心がけます。ちなみに確かW22?だかの設定で著作権自体は外すことができましたが、この設定自体は添付には関係ないのですね。 -- ? 2007-04-15 (日) 02:16:33
  • ここで方法を教えてしまうと他のヴァカが悪用してしまうので教えられません。/ まぁヒントとしては音声のみで添付可能な設定と比べてみなさい。 -- ('A`) 2007-04-15 (日) 02:48:26
  • 著作権は外れても、メール添付容量がW3xの夏モデル以前は150KBだからそれかも? -- 2007-04-15 (日) 11:27:30
  • コメント有難う御座います。そうですね。確かに動画は2M近くのものです。添付可能音声との比較もしつつ、地道に探してみます。 -- ? 2007-04-15 (日) 20:22:49

音声のみ

better? (2007-04-13 (金) 21:04:18)

【使用中のOS】
:XP
【使用中の携帯・プレイヤー】
:w41s
【使用中transcodingの名前】
:
【元の動画のコーデック】
:
【質問内容(詳細に、見やすく)】
:動画ファイルの音声だけを3GP2に変換することは可能なのでしょうか?
(動画を着うたの状態にしたいのです。)
教えてください。

  • W41Sの設定で可能ですよ。聞く前にやってみましょう。 -- ('A`) 2007-04-13 (金) 21:19:33
  • 音声関連の方をコピペしてやってみたけど動画が入ったままでした・・・ -- better? 2007-04-13 (金) 21:23:26
  • あぁそうか、W**Sのは入ってしまうね。申し訳ない。/ W21Sの設定なら入らないと思うよ。 -- ('A`) 2007-04-13 (金) 21:26:09

Vistaについて聞きます

(2007-04-13 (金) 07:49:14)

WindowsVistaで作成したaviファイルは、ほかのOS…例えばXPなどで再生すると不具合ある公式発表あるみたいだけど、ガクガクしたり再生できないとか…

質問ですが 下の方に↓ユーチューブが再生できる人いますが そうゆうバグは発生しますか??

  • 変換君自体がvistaに完全に対応しているわけではないので、対応するまでは互換性がなくても仕方がないかと。あとようつべの再生はOSとかの問題だからほかで聞いて下さい -- 2007-04-13 (金) 13:32:21
  • 当分はXPの方がいいね -- 2007-04-13 (金) 17:24:34
  • いや変換君の質問ですが?もしかしたら。変換エラーになる人、ならない人が関係あるのかと -- 2007-04-13 (金) 18:10:40

HE-AACの音質について

rubys? (2007-04-13 (金) 02:32:15)

【使用中のOS】
:XP
【使用中の携帯・プレイヤー】
:Vodafone904SH
【使用中transcodingの名前】
:Transcoding_HE-AAC.ini

HE-AACの音質を、44100Hzとし、ビットレートを48kbpsとすると、MP3ではどの程度の音質になるのでしょうか。
PCで音楽を再生するさい、自分はたいてい44100Hzでビットレートを192kbpsとして再生しているので、携帯でも同じ音質で再生したいです。

また、この携帯で音楽を再生するさい、タイトルは表示されるのですが、アーティスト名がどうしても表示されません。
アーティストの表示は無理なのでしょうか?

  • HE-AAC 48kbps≠AAC-LC 96kbps≠MP3 128kbps くらいだと俺は思ってるが…自分で聞き比べるのが一番かと。/ アーティストの表示などはesyu氏のHPにあるprop.exeかin_prop.exeを使えばできるかもしれない、やったことないから分からないけれど。 -- ('A`) 2007-04-13 (金) 17:31:56
  • ご丁寧にありがとうございますm(_)m さっそく参考にしてみますね。 -- rubys? 2007-04-13 (金) 23:15:02

mp3(音声)をV603SHで聞けるようにしたい

ビギナーズ? (2007-04-12 (木) 23:55:22)

使用中のOS】
:XP
【使用中の携帯・プレイヤー】
:V603SH
【使用中transcodingの名前】
:Transcoding_3GPP_AMR.ini

【元の動画のコーデック】
:
【質問内容(詳細に、見やすく)】
PCにあるmp3を携帯で聞けるようにしたいです。
「対応機種」の場所に動画の方法は書かれているのですが、音声については特に何もかかれてないので、教えて下さい。

  • 頼むから試してから聞いてくれ。同じ方法で出来るから。ちなみに音が悪いってのはAMRっていう音声設定の限界だからAACが使えない機種(V603SHなど)なら諦めてください -- 2007-04-13 (金) 00:04:36
  • 変換君を使わないで、音楽を携帯に入れてミュージックキーをダウンロードすればできますよ。わからなかったら、説明書を読むが「ミュージックキー」でググりなさい。 -- 2007-04-13 (金) 00:17:05
  • 604SHのところに詳しく書かれていたので、それを参考にしながら自分なりに考えて試してみました。SDカードの保存場所は「ボイス」や「データーファイル→オーディオ」に入れてみたのですが、「ボイス」ではファイルを表示できなかったです。「オーディオ」ではなんとか表示させることは出来たものの、「ファイルが不正です」とエラーメッセージが出ます。また、この機種では32kbpsでないとダメと聞いた事があるので、transcodingの音声設定の箇所でそのように編集もしました。ミュージックキーの事も考えましたが、キーを取得するのに1500円かかるという事なので、やはり出来る事なら変換君に頼りたいところなのですが・・・。それでもダメなら、諦めたほうが早いということでしょうか。 -- ビギナーズ? 2007-04-13 (金) 09:32:40
  • 604SHはAACが再生できるが603SHは再生できないので無理。素直にミュージックキーを購入しなさい。 -- ('A`) 2007-04-13 (金) 17:36:07

見れない!

シロウト? (2007-04-12 (木) 21:21:36)

【使用中のOS】
:WindowsXP
【使用中の携帯・プレイヤー】
:W41CA
【使用中transcodingの名前】
:
【元の動画のコーデック】
 
:
【質問内容(詳細に、見やすく)】
:SDビデオ形式に変換して、ケータイで再生しようとすると[しばらくお待ちください]と表示されたまま、再生が始まりません。どうしたらいいでしょうか?

  • えーっと…なぜW41CAの設定を使わないんだ? -- ('A`) 2007-04-12 (木) 21:47:49
  • AUではSD-VIDEOのG.726が再生できないのが原因だと思います。 -- あると? 2007-04-12 (木) 21:48:50
  • 返事ありがとうございます。W41CA用の設定が無かったです。SD-VIDEOはあるけどG.726はわかりません・・・ -- シロウト? 2007-04-13 (金) 00:08:56
  • つまり、君は設定の編集方法から分からないってことだな? とりあえず、21caの設定使っとけ。ってか、readmeくらい読んでからここに来なさい -- 2007-04-13 (金) 00:12:59

PSPで動画が再生できません。

T.Y? (2007-04-12 (木) 18:35:29)

【使用中のOS】
XP HomeEdition
【使用中のプレイヤー】
PSP 公式FW3.30
【使用中transcodingの名前】
AVC QVGA/29.97fps/384kbps ステレオ/128kbps
【質問内容】
PSPでH.264/MPEG4 AVCの動画が、非対応データになっており再生できません。
動画はVIDEOフォルダにいれています。
FWは前述の通り、公式の3.30です。

  • 今使っているtranscodingに-vlevel 30というオプションを追加してみてください。 -- くじぃらん? 2007-04-12 (木) 18:45:32

タグ表示しません

たっくん? (2007-04-11 (水) 19:25:04)

【OS】
WindowsXP pro sp2
【携帯・プレイヤー】
SO903i
【transcodingの名前】
Transcoding_3GPP_AAC.ini
【質問内容】
mp3→3gp変換後、miniSDに直書しましたがタグ情報(タイトル名等)が不明にな ります。曲の再生は可能なのですが・・・ 3gpに変換後、タグ編集しないといけ ないのでしょうか?

  • その通りタグ編集が必要です。でもSO903iならmp3のまま聞けるんじゃ? -- ('A`) 2007-04-11 (水) 19:57:38
  • mp3infp使ったら認識しませんでした。他に編集の方法あるのでしょうか? -- たっくん? 2007-04-12 (木) 08:12:11
  • esyu氏のHPにあるprop.exeかin_prop.exeを使うしかないかと。 まぁ俺はタグ入れるの面倒だから入れないけれどね、どうせ曲の再生はバックグラウンドで行うし。 -- ('A`) 2007-04-12 (木) 17:04:40
  • ありがとうございました。タイトル名は表示できるようになりました! -- たっくん? 2007-04-13 (金) 00:02:32

ffmpegを入れかえたら・・・

くじぃらん? (2007-04-11 (水) 18:13:18)

【使用中のOS】
:Windows XP Home Edition Version 2002 Service Pack 2
【使用中の携帯・プレイヤー】
:PSP 公式FW3.30
【使用中transcodingの名前】
:Command0=""<%AppPath%>\cores\ffmpeg" -y -i "<%InputFile%>" -title "<%Title%>" -timestamp "<%TimeStamp%>" -bitexact -vcodec h264 -coder 1 -vlevel 30 -bufsize 128 -deinterlace -g 250 -s 720x480 -r 30 -qscale 20 -qpel -bf 8 -mbd 2 -acodec aac -ac 2 -ar 48000 -ab 64 -f psp "<%OutputFile%>.mp4""
Command1=""<%AppPath%>\cores\ffmpeg" -y -i "<%InputFile%>" -f image2 -ss 5 -vframes 1 -s 160x120 -an "<%OutputFile%>.jpg""
【質問内容(詳細に、見やすく)】
:変換君ver0.34のffmpegをSVN-r8564に入れかえ、VOB,mpg,wmvを変換しようとしたら、"処理実行中にエラーが発生しました[Error:1]" と表示され、Logに次のような文が吐き出されていました。
Unable for find a suitable output format for 'h264'
そもそもffmpegを入れかえるなんてことをしてはいけないのでしょうか。

  • 入れ替えればオプションは違ってきます。なので当然エラーが出ます。どうしても最新版が使いたいならば最新版のオプションを使いましょう。 -- ('A`) 2007-04-11 (水) 19:58:57
  • オプションを確認し、修正したら問題なく動きました。ご協力ありがとうございます。 -- くじぃらん? 2007-04-12 (木) 21:09:01

ドロップ

YUKI? (2007-04-09 (月) 23:05:27)

2度目です、すいません;;今度はドラッグしたファイルをドロップしようとしてもできません。なぜでしょうか?OSはWindows Vistaで、携帯機器はPSPです。よろしくお願いします。

  • Vistaだからでしょう 変換君使うときだけUACを無効にしてOK -- 2007-04-09 (月) 23:09:43
  • すいません、UACってなんですか;; -- YUKI? 2007-04-09 (月) 23:23:47
  • それくらい自分で調べなさい。それはパソコンのお話です!以上! -- 2007-04-09 (月) 23:27:19
  • UAC(ユーザー・アカウント制御,User Account Control) -- 2007-04-09 (月) 23:32:59
  • gccのコンパイルが、変換君のスクリプトに競合してるかしてないかでも・・・。まあこれはUACを無効にしなくてもD&D出来る人はそうでしょ -- 2007-04-09 (月) 23:47:22
  • Vistaって互換性問題多いんだな〜俺は当分XPでフォントをメイリオにして使い続ける -- 2007-04-10 (火) 02:26:51
  • 俺もメインはVistaUltimateで、サブはXP Homeをメイリオ+ClearTypeで使ってる。Vistaでも変換君は問題なく動いてるけど、現状はXPの方が扱いやすいと思う -- 2007-04-10 (火) 18:36:39
  • 俺のVista機でも問題なく動いていますが、できないという方もいるようなのでXPで使うことをオススメしますよ。 -- ('A`) 2007-04-10 (火) 20:20:41

アプリケーションが・・・

YUKI? (2007-04-09 (月) 20:46:57)

携帯動画変換君の3GP_Converter034.zip(Version 0.34)を        ダウンロードしようとすると「アプリケーションが見つかりません」
と出てきてダウンロードできません。誰か教えてくれませんか?
OSはWindows Vistaで、携帯機器はPSPです。よろしくお願いします。

  • ここから取れる。正直・・・論外な質問だよ? -- あああ? 2007-04-09 (月) 21:01:21
  • やっぱり「アプリケーションが見つかりません」になってしまいます;; -- YUKI? 2007-04-09 (月) 21:14:54
  • 解凍ソフトの関連付けが問題だと思います。 -- あると? 2007-04-09 (月) 21:17:35
  • Vistaってそんなにショボボなの?RC1しか使ったこと無いけど。。。なら他のダウンロードマネージャーでトライしてごらん?ここから探して。 -- 2007-04-09 (月) 21:18:26
  • ああそういう事か・・・イラン世話すまん。 -- 2007-04-09 (月) 21:19:16
  • ありがとうございます、解凍ソフトをインストールしたらできました。まだPCに慣れていないものでご迷惑おかけしました。 -- YUKI? 2007-04-09 (月) 22:16:11

ムービーを小さくしたい!!

sasaki? (2007-04-09 (月) 15:41:07)

【使用中のOS】
:windowsXP
【使用中の携帯・プレイヤー】
:A5518SA
【使用中transcodingの名前】
:[Item0]
Title=EZムービー
Command0=""<%AppPath%>\cores\ffmpeg" -y -i "<%InputFile%>" -timestamp "<%TimeStamp%" -bitexact -qmin 1 -qmax 31 -vcodec xvid -mbd 2 -4mv -trell -aic -fixaspect -s 176x144 -r 15 -b 216 -acodec aac -ac 2 -ar 48000 -ab 96 -f 3gp -muxvb 192 -muxab 64 "<%TemporaryFile%>_1.3g2""
Command1=""<%AppPath%>\cores\QT3GPPFlatten" "<%TemporaryFile%>_1.3g2" "<%TemporaryFile%>_2.3g2" -c QT_3GPP2_QCIF_AAC.ini"
Command2=""<%AppPath%>\cores\ATOMChanger" "<%TemporaryFile%>_2.3g2" "<%OutputFile%>.3g2" "Camouflage_MOVIE_for_A5518SA.ini""
Command3="rm "<%TemporaryFile%>_1.3g2""
Command4="rm "<%TemporaryFile%>_2.3g2""
【元動画のコーデック】
:
質問内容(詳細に、見やすく)】
:元のムービーが51MBあり、18MBまで小さくしたいのですが、何か方法ありますか?多少荒くなっても構いません。宜しくお願いします。

  • 自分でこのWiki見て勉強してください。 -- 2007-04-09 (月) 16:12:45
  • あからさまに何も調べてないね。ココは、それくらい自分で調べられるようになってから来ようね。ヒント:ページ左上のリンク先を片っ端から見てみ -- 2007-04-09 (月) 17:58:27
  • 単純にビデオビットレート下げるなら-b 216の数値を下げていけば。 -- てつ? 2007-04-09 (月) 21:03:17
  • ありがとうございました。何とか小さくできました。 -- sasaki? 2007-04-09 (月) 23:22:23

着うたフルにはどうすれば?

okura? (2007-04-09 (月) 00:12:59)

【使用中のOS】
:Win XP
【使用中の携帯】
:SH903iTV
【使用中transcodingの名前】
:

(【質問内容(詳細に)】
:
mp3からmp4に変換したいんですが、どうすればいいのですか?
出来たとしても再生サイズが大きくて再生できませんと表示されます。
どうすればSH903iTVで再生できる着うたフルが作れるのですか?教えてください。

  • 着うたフルは変換君ではつくれませんよ。再生のみならmicroSDに入れればOKですが。 -- ('A`) 2007-04-09 (月) 00:28:48
  • ソフトがあるよググるのだ -- 2007-04-09 (月) 01:47:26
  • QTでビットレート48,サンプリング24の3gp作成でOkです -- 2007-04-09 (月) 23:11:03
  • 変換君はドコモだとiモーション(3gpファイル)を作るソフトです。着うたフルはiモーションをファイル変換したものです。ドコモは規制が緩いから簡単に作れます。検索しましょう -- 2007-04-09 (月) 23:45:31

変換できません。。。~

(2007-04-08 (日) 11:15:05)~


【使用中のOS】~
:xp~
【使用中の携帯】~
:ipod~
【使用中transcodingの名前】~
:~
【元の動画のコーデック】~
:~
【質問内容(詳細に)】~
:DLしたflvやwmvをipod用に変換したいのですが、変換君のウインドウに
ファイルをドラッグしてもウインドウの下側の100%とか表示される部分に何の変化もないままファイルがウインドウから消えてしまいます。
quick timeも最新版が入っているし、エラーなどは何もでないのですが。。。
どうすればいいでしょうか。。

  • flvは一度別のソフトで変換しないとダメ、wmvはAvisynth通さないと読み込んでくれない可能性大。再圧縮の項を参照 -- 2007-04-08 (日) 12:48:54
  • flvはファイルによってはプログレスバーが表示しないまま変換される時があります。出力先のフォルダを見れば変換されたファイルがあるかもしれません。 -- 2007-04-08 (日) 20:43:42
  • これは単にそのflvのコーデックがOn2VP6だからじゃないのか? -- 2007-04-09 (月) 09:32:46
  • 他の変換できるというflvはコーデックがSorenson Spark何でしょ -- 2007-04-09 (月) 09:33:35

変換できません・・・。

BBB? (2007-04-07 (土) 23:36:57)

【使用中のOS】
:Win XP
【使用中の携帯】
:softbank 911 SH
【使用中transcodingの名前】
:
【元の動画のコーデック】
:
  
【質問内容(詳細に)】
はじめまして、申し訳ないのですがどうしても動画を変換しようとしてもできません。エラーの理由として「Elnvalid Op がモジュールKernel32.dllの0001EB33で発生しました。不正な浮動小数点数演算命令」とでてしまいます。どうしてでしょうか?他にもいくつかの動画ファイルでためしたのですがどれも同じでした。どうなたかどうかこのことについて教えていただけないでしょうか?よろしくお願いします。

  • まず日本語を整えましょう。そしてそれは変換君由来の問題じゃないです。FLOPSどうこうってことは多分CPUの設定がおかしいじゃないかな。XP再インストールしてみるといいかも。 -- 2007-04-07 (土) 23:55:20
  • テンプレにCPU名も追加した方がいいな -- 2007-04-08 (日) 10:56:31
  • すいません、見にくいですね。以後気をつけます。アドバイスありがとうございます。がんばってみます。 -- BBB? 2007-04-08 (日) 17:27:13

無題

ゎぉ? (2007-04-07 (土) 23:14:07)

【使用中のOS】
:WinVista
【使用中の携帯】
:SH903i
【使用中transcodingの名前】
:SH903iのページのもの。(下)
【元の動画のコーデック】
:XviD
【質問内容(詳細に)】
:普通に変換をして、QTで再生しても音ズレなどは全くないのに、実際にmicroSDに動画を移し、ケータイで再生してみると音ズレをしています。
この場合どうすればよいのか教えてください。
よろしくお願いします。

  • んーとりあえず音ずれについてを実行してみては? -- ('A`) 2007-04-08 (日) 00:15:01
  • すみません...自己解決しました^^; SH903iについて、DoCoMoのHPで詳細を見てみたところ、動画フレームレートが最大15fpsになっていたのでそれにあわせてみると見事に再生できました。でも1分30秒くらいのものは29.97fpsでもできたんだけどなぁ; -- ゎぉ? 2007-04-08 (日) 00:29:51

無題

(2007-04-07 (土) 20:29:39)

【使用中のOS】
:XP
【使用中の携帯】
:902T
【使用中transcodingの名前】
:
【質問内容(詳細に)】
:AAC音声をAMRに偽装して登録したいんですがどうやればいいのですか?

  • 903T911Tを見なさい。 -- ('A`) 2007-04-07 (土) 21:31:53
  • 幼稚な質問に答えてくれてありがとうございました。申し訳ありませんでした。 -- 2007-04-10 (火) 23:25:48

エラーについて

イルカ? (2007-04-07 (土) 18:57:54)

【使用中のOS】
:ME
【使用中の携帯】
:SH903i
【使用中transcodingの名前】
:
【質問内容(詳細に)】
:処理が100%にいって青い%ゲージが消えて少しするとエラーになってしまいます。どうしてなのでしょうか?教えてくださいお願いします。

  • ソースによって違う?特定ファイルだけならそれを再圧縮。全部同じならエラーログをコピペして。 -- おくさん? 2007-04-07 (土) 20:48:44
  • わかりました。ありがとうございます。 -- イルカ? 2007-04-07 (土) 22:59:18

w41s

kiip? (2007-04-06 (金) 20:17:36)

【使用中のOS】
:WindowsXP
【使用中の携帯】
:w41s
【使用中transcodingの名前】
:3GPPファイル, 音声AMR形式一般設定
【元の動画のコーデック】
:
【質問内容(詳細に)】
:youtubeの動画をダウンロードし、変換もできたのですが、USBマスストレージモードで携帯のメモリースティックに移動してみると再生できません。
必要なテキストもcoresに入れました。
transcodingのテキストを書き換えなければダメなのでしょうか。
どなたか教えてください。。。

  • ダメなのかと思ったらまずは実践しなさい。それとyoutube関連は著作権が絡んでくるのですべて自己責任、自己解決でお願いします。 -- ('A`) 2007-04-06 (金) 21:22:23
  • その書き換え方がよくわからないんです。 -- kiip? 2007-04-06 (金) 21:30:44
  • Transcoding.iniカスタマイズとかこのWikiを見てわからないのならば諦めましょう。自己解決で…ね。 -- ('A`) 2007-04-06 (金) 21:37:43
  • あ、自分も以前そうでした。これはどこに保存するかで解決します♪ -- 2007-04-09 (月) 08:56:55

NEROを用いた動画変換について PSP向け設定

芳宏? (2007-04-06 (金) 20:07:44)

【使用中のOS】
:winXP home SP2
【使用中の機種】
:PSP 公式FW3.30
【使用中transcodingの名前】
:自作
【元の動画のコーデック】
: 映像 MPEG1 800x600 29.97fps

 音声 MPEG1-Layer2 44.1KHz 192Kbps Stereo
 93.6MB 再生時間 2分09秒  


【質問内容(詳細に)】
:度々すみません。
音声の部分を変換するエンコーダにNERO(HE-AACのところにあったもの)を使用してPSP向けのAVCに変換したかったので、
以前質問させて頂いたものを参考にTranscoding.iniを作成していろいろと試行錯誤してみたのですが、エラーが出たり
音声しか出力されなかったりと、どうしてもうまくいきませんでした。

下の設定でやると変換終了後にエラーが出てしまい、ファイルが出力されません。

どの辺りが間違っているのでしょうか。ご指摘お願いします。


Title=PSP AVC / nero AAL-LC 192kbps
Command0=""<%AppPath%>\cores\ffmpeg" -async 1000 -y -i "<%InputFile%>" -title "<%Title%>" -timestamp "<%TimeStamp%>" -bitexact -vcodec h264 -coder 1 -bufsize 128 -g 250 -vlevel 13 -fixaspect -s 720x480 -r 30 -qscale 27 -maxrate 1500 "<%TemporaryFile%>_1.m4v" -i "<%InputFile%>" -ac 2 -ar 48000 -f wav "<%TemporaryFile%>_1.wav""
Command1=""<%AppPath%>\cores\Nero\neroAacEnc" -br 192000 -lc -if "<%TemporaryFile%>_1.wav" -of "<%TemporaryFile%>_1.m4a""
Command2=""<%AppPath%>\cores\mp4creator60" -extract=1 "<%TemporaryFile%>_1.m4a" "<%TemporaryFile%>_1.aac""
Command3=""<%AppPath%>\cores\mp4creator60" -optimize -mpeg-version=4 -c="<%TemporaryFile%>_1.aac" "<%TemporaryFile%>.mp4""
Command4=""<%AppPath%>\cores\mp4creator60" -r=30 -optimize -c="<%TemporaryFile%>_1.m4v" "<%TemporaryFile%>.mp4" "<%OutputFile%>.MP4""
Command5="cmd /c "del "<%TemporaryFile%>*.*"""

  • もしかしたらH.264は対応してないかもしれません。ちと今ウィルスチェック中で試せないのですがw Xvidでやってみるとよいかと。 -- ('A`) 2007-04-06 (金) 21:21:10
  • 今試してみましたところ、xvidだとエラーは出なかったのですが何も出力されませんでした。mpeg4だとD&Dした瞬間にエラーになってしまいました・・・ -- 芳宏? 2007-04-06 (金) 21:45:17
  • んーなんだかH.264だとうまくいかないなぁ…。/ 出力されないのはCommand4の出力が"<%TemporaryFile%>.mp4" "<%OutputFile%>.MP4"" と2つあるからだとおもいます。 -- ('A`) 2007-04-06 (金) 23:29:42
  • なるほど・・・ ご指摘ありがとうございます。ではその辺りを直してまた試行錯誤してみます。 もしできたという方がいらっしゃいましたら、書き込みして頂けると幸いです。 -- 芳宏? 2007-04-07 (土) 03:55:16
  • Quicktimeで2つをまとめれば? -- 2007-04-08 (日) 11:06:42
  • すみません。その場合はやはり有償のQuickTime7 Proが必要なのでしょうか? -- 芳宏? 2007-04-08 (日) 14:09:05
  • QTで結合するならProが必要ですね。 -- ('A`) 2007-04-08 (日) 14:19:51
  • 最新のffmpegに入れ替えてあるので、微妙に違うかもしれませんがHE-AACを使った設定を貼っときますね -- モス? 2007-04-08 (日) 16:33:57 Title=AVC 16:9/24fps/512kbps 2pass Command0=""<%AppPath%>\cores\ffmpeg" -y -i "<%InputFile%>" -bitexact -vn -ac 2 -ar 48000 -f wav "<%TemporaryFile%>.wav"" Command1=""<%AppPath%>\cores\Nero\neroAacEnc" -br 128000 -he -if "<%TemporaryFile%>.wav" -of "<%TemporaryFile%>.aac"" Command2=""<%AppPath%>\cores\ffmpeg" -bitexact -y -i "<%InputFile%>" -vcodec h264 -coder 1 -aspect 16:9 -s 480x270 -r 24000/1001 -bufsize 128k -g 240 -bf 3 -mbd 2 -cmp 2 -subcmp 2 -trellis 3 -qns 100 -level 21 -b 512kb -passlogfile "<%TemporaryFile%>" -pass 1 -an -f mp4 "<%TemporaryFile%>.mp4" Command3=""<%AppPath%>\cores\ffmpeg" -bitexact -y -i "<%InputFile%>" -vcodec h264 -coder 1 -aspect 16:9 -s 480x270 -r 24000/1001 -bufsize 128k -g 240 -bf 3 -mbd 2 -cmp 2 -subcmp 2 -trellis 3 -qns 100 -level 21 -b 512kb -passlogfile "<%TemporaryFile%>" -pass 2 -an -f mp4 "<%TemporaryFile%>.mp4" Command4=""<%AppPath%>\cores\MP4Box" -add "<%TemporaryFile%>.aac" -add "<%TemporaryFile%>.mp4" "<%OutputFile%>.mp4"" Command5="rm "<%TemporaryFile%>.log"" Command6="rm "<%TemporaryFile%>.log.temp"" Command7="rm "<%TemporaryFile%>.wav"" Command8="rm "<%TemporaryFile%>.aac"" Command9="rm "<%TemporaryFile%>-0.log"" Command10="rm "<%TemporaryFile%>.mp4""
  • モスさんありがとうございます。そのままではエラーになってしまったので現在調整中です。 あと、QuickTimeでの結合の方はなんとかできました。ヒントを下さった方、ありがとうございました。 -- 芳宏? 2007-04-08 (日) 19:53:53
  • おおそりゃよかった〜 -- (^O^)>? 2007-04-09 (月) 21:10:22

D903iTVで

koko? (2007-04-06 (金) 18:36:58)

使用中のOS】
xp
【使用中の携帯】
D903iTV
【使用中transcodingの名前】
:
【元の動画のコーデック】
(真空波動研などを用いて調べてください。間違っても、拡張子(aviなど)は書かないでください)
:
【質問内容(詳細に)】
YOUTUBEの動画を保存し変換君を使って変換し変換したファイルを「質問の前に」を読んでmicroSDには保存できたのですが、携帯にmicroSDに挿入してみても携帯で認識しないんです、どなたか教えてください。


P903iTVの音質をあげる(ステレオ)

FA? (2007-04-06 (金) 14:37:57)

WINDOWS XP Pro.
P903iTV

P903iTV画面の美しさと音のよさを生かし、Bluetoothを利用して音楽DVDビデオを携帯で持ち歩きたいと考え、
QVGA ASFファイル SD-VIDEO形式 音声G726 一般設定 直接 (実験中)
を利用してP903iTVのmicroSDへ取り込むことができましたが、音がモノラルで、ステレオで音質を上げようといろいろ試してみましたが、うまくいきません。
音質を上げるにはどような方法があるのでしょうか?
どなたかお解かりになったらご指導ください。
宜しくお願い申し上げます。

  • SD-VIDEOのG.726という規格の限界です。なぜSD-VIDEOを使っているのか不明ですが、素直に3gpを使いなさい。 -- ('A`) 2007-04-06 (金) 14:41:22
  • 早速の書き込みありがとうございます。microSDにはMP4かASFしか設定がなく -- FA? 2007-04-06 (金) 14:54:58
  • 3gpは本体で可能ですが、1件あたり500Kバイトが限界のようです。残念です。ありがとうございました。 -- FA? 2007-04-06 (金) 15:01:12
  • それは撮影であって再生は3gpでもできるはずですよ?手持ちのP900iVも撮影はASFのみだけですがminiSD上で3gpの再生もできますので。 -- ('A`) 2007-04-06 (金) 21:18:41
  • いつもいつもご指導ありがとうございます。3gpでも可能でした。でも、やはり音はよくないですね! -- FA? 2007-04-08 (日) 09:04:22
  • P903iの設定を使ってはどうでしょう。少なくとも初期に入っている3GPP設定よりは音がいいはずです。 -- ('A`) 2007-04-08 (日) 14:20:53
  • いつみいつもご指導ありがとうございます。P903i設定でやってみました。多少、音が良くなったようです。しばらくこれでやtってみたいと思います。ありがとうがざいました。 -- FA? 2007-04-09 (月) 17:50:54

Vista対応について…

あみば? (2007-04-06 (金) 01:14:25)

【使用中のOS】
:vista
【使用中の携帯】
:N902i
【使用中transcodingの名前】
:Transcoding_PC.ini
【元の動画のコーデック】

:MPEG2
【質問内容(詳細に)】
UACを無効にし、ver0.31で試してみたところ、ffmpegが強制終了してしまいます。エラーは-1073740940。何が問題なのでしょうか?

  • んー俺はUACは有効なままでもできました。-1073740940ではないけど近いエラーとして質問する前ににError:-1073741819について書いてあるので試してみては? -- ('A`) 2007-04-06 (金) 01:21:35
  • 携帯動画変換君の同じヴァージョンのもので上書きしろということですよね?試してみましたが、結果は同じでした。 -- あみば? 2007-04-06 (金) 01:34:49
  • んーそれでもダメだとちょっと分からないなぁ…。XPで我慢するしかないかも。 -- ('A`) 2007-04-06 (金) 02:28:49

A5523Tの設定について

サリンちゃんのパパ? (2007-04-06 (金) 00:33:42)

[Item*]
Title=着うた / 音声:16kbps 32kHz Mono
Command0=""<%AppPath%>\cores\ffmpeg" -y -i "<%InputFile%>" -bitexact -vn -acodec aac -ac 1 -ar 16000 -ab 32 -f 3g2 -muxab 64 "<%TemporaryFile%>_1.3g2""
Command1=""<%AppPath%>\cores\QT3GPPFlatten" "<%TemporaryFile%>_1.3g2" "<%OutputFile%>.3g2" -c QT_3GPP2_QCIF_AAC.ini"
Command2="cmd /c "del "<%TemporaryFile%>*.*"""

上記の設定で、音楽は3200Kまで再生できてます。
機種別の設定情報ではA5511Tと同じ設定となっており800Kまでとなって
いますが、どなたか詳細に検証されたかたはいらっしゃいませんでしょうか?
動画関連も設定によっては800Kを超えるのは可能なのでしょうか?
よろしくお願いします。

  • このWikiに書かれていないとなると自分で調べた方が早いと思います。 -- ('A`) 2007-04-06 (金) 00:59:44
  • 1X で音楽機能は期待しないほうがいいよ。簡単ケータイ? -- 2007-04-06 (金) 11:56:48
  • それは、まあそうなんですけど子供用なので1Xです。子供用なのであまりいじれないので、急ぎで仕様が分かればありがたいかなーと思い質問させてもらいました。 -- サリンちゃんのパパ? 2007-04-06 (金) 13:21:56
  • 検証し解決しました。動画もOKで、A5523Tは実はすごいかもしれません。でもニーズが無さそうなので終了します。 -- サリンちゃんのパパ? 2007-04-07 (土) 09:47:08

HE-AAC 低ビットレート

(2007-04-05 (木) 13:56:49)

HE-AACでビットレートを1桁にしたいのですが、いくらiniの方を下げても12程までしか下がりません。
何か方法はありませんでしょうか?

  • Nero Digital Audioが対応していないんじゃない?そもそも一桁のビットレートとか音楽じゃなくなりそうw -- おくさん? 2007-04-05 (木) 15:34:21
  • 確かHE-AACには最低ビットレートの限界があったと思います。12か16kbpsあたりかと。」 -- 2007-04-05 (木) 18:34:46

911T 登録可能着うた(3gp)

yukiki? (2007-04-05 (木) 02:20:50)

【使用中のOS】
WINXP HOME SP2
【使用中の携帯】
SOFTBANK 911T
【使用中transcodingの名前】
Transcoding_w21t_w31t.ini
【元の動画のコーデック】
音声で、WAVE44100ステレオです。
【質問内容(詳細に)】
911Tの掲示板でお世話になっているものです。
なんどか皆さんのご指示をいただき、何度かチャレンジしてみました。
こんな感じです。

[Item0]
Title=W21T着信音(500k制限/QT再生可)mp4creator60
Command0=""<%AppPath%>\cores\ffmpeg" -y -f image2 -loop -shortest -i "<%AppPath%>\cores\soundonly_%02d.jpg" -i "<%InputFile%>" -fs 480 -bitexact -vcodec mpeg4 -s 176x144 -r 1 -b 1 -acodec aac -ac 1 -ar 24000 -ab 64 -f 3gp "<%TemporaryFile%>_.3g2""
Command1=""<%AppPath%>\cores\ffmpeg" -t 1 -y -i "<%InputFile%>" -bitexact -acodec amr_nb -ac 1 -ar 8000 -vol 0 -ab 12 -vn "<%TemporaryFile%>_esyu.amr""
Command2=""<%AppPath%>\cores\mp4creator60" -optimize -interleave -force3GPCompliance -create="<%TemporaryFile%>_esyu.amr" "<%TemporaryFile%>_.3g2""
Command3=""<%AppPath%>\cores\ATOMChanger" "<%TemporaryFile%>_.3g2" "<%OutputFile%>.3g2" "Camouflage_copy.ini""
Command4="cmd /c "del "<%TemporaryFile%>*.*"""

最後に拡張子を3g2から3gpに変えました。
なぜかムービーフォルダーにいれても読めないファイル扱いです。
動画偽装ファイルになりますが、どなたかお分かりの方、教えていただけないでしょうか。よろしくお願い致します。

  • ソンダフォンだからじゃないか -- 2007-04-05 (木) 09:27:49
  • 812Tまったく同じですね。 -- たけ? 2007-04-05 (木) 16:42:09
  • ↑の訂正。812Tでは再生&アラーム設定できるのに911Tだと再生すら出来ないです。Transcoding_w21t_w31t.iniは画像部分を削除してますがほとんど同じです。あとはバイナリを弄るぐらいしか思いつきません。 -- たけ? 2007-04-05 (木) 16:49:53
  • 911Tなら3GPP一般設定を使ってみてはどうですか?3g2を3gpに変えてもダメだと思います。中身が違うので。それにソフトバンクなのにau用の設定を使うのはダメだと思います。 -- あると? 2007-04-05 (木) 20:28:34
  • 3g2と3gpは中身一緒だろう。 -- 2007-04-05 (木) 20:32:14

D&Dで…

あみば? (2007-04-04 (水) 15:03:30)

【使用中のOS】
:vista
【使用中の携帯】
:N902i
【使用中transcodingの名前】
:Transcoding_PC.ini
【元の動画のコーデック】

:MPEG2
【質問内容(詳細に)】
:.vob→.avi
の変換をしたいのですが、D&Dをしようとすると読み込んでくれません。
(エラー以前の問題です)
XPではできていたのですが…
どなたか解決方法わかる方、お願いします。

  • QuickTimeのインストールは済んでいます。 -- あみば? 2007-04-04 (水) 15:05:18
  • 携帯動画変換君があるディレクトリがC\Program filesなどにあると設定ファイルが作成できずに読み込めない場合があります。またQuick TimenoがVistaでは -- あると? 2007-04-04 (水) 19:18:27
  • すいません。間違ってenterを押してしまいました。続きです。またQuick TimeのバージョンによってはVistaでは動作できないのでそれが原因だと思います。 -- あると? 2007-04-04 (水) 19:20:28
  • デスクトップに置いてあるのでvistaが原因だと思います。あきらめるしかないですかね… -- あみば? 2007-04-04 (水) 20:16:00
  • Vista Home Pre で変換できました。ただしVer0.31しか試してないので最新(0.34)は分かりません。 -- ('A`) 2007-04-04 (水) 21:37:20
  • UACを無効にし、ver0.31で試してみたところ、ffmpegが強制終了してしまいます。エラーは-1073740940。何が問題なのでしょうか? -- あみば? 2007-04-06 (金) 00:59:02
  • スレ違いになってきたので「Vista対応について…」を立てました。お願いします。 -- あみば? 2007-04-06 (金) 01:15:47
  • オプションの「自動Avisynth経由読み込み処理wo -- chivas? 2010-03-06 (土) 16:21:25

V603SHで再生できません

yana? (2007-04-03 (火) 22:02:27)

【使用中のOS】
:Windows2000

【使用中の携帯】
:V603SH

【使用中transcodingの名前】
:Transcoding_3GPP_AMR.ini

【質問内容(詳細に)】
:
対応機種のところに書いてあるとおりに変換して入れているのですが、携帯電話で見ようとするとエラーになり、不正データのため表示できませんとなります。
場違いな質問だったらすみませんが、過去の質問でも答えがなかったので…。
教えてください。

  • 元動画のコーデックを調べてください。 -- ('A`) 2007-04-04 (水) 00:25:59
  • MPEG2-Layer3というやつでしょうか…よくわからなくてすみません -- yana? 2007-04-04 (水) 22:35:47
  • 調べるツールは上に書いてあるでしょ? 頼むからコーデックくらいは自己解決してください。テンプレートは我々が原因を考える上で必要な事項なのだから -- 2007-04-04 (水) 22:43:02
  • 調べて書いたのですが、どの部分を書いていいのかわからなかったので… -- yana? 2007-04-05 (木) 22:33:35
  • どの部分ではなく、全てを書けばいいです。 -- ('A`) 2007-04-05 (木) 22:37:27
  • 320x240 Sorenson H.263 0.00fps 330.31kb/sMPEG2-LayerIII 22.05kHz 64.00kb/s CBR Mono[FlashVideo] 00:06:29 (389.36sec) / 16,078,044Bytes というのでいいのでしょうか -- yana? 2007-04-07 (土) 21:25:21
  • それで良いです。/ どうやらFlashなようなのでリンク集のフラッシュavi化でaviにしてから変換してみると良いかと思います。 -- ('A`) 2007-04-07 (土) 22:02:15
  • 挑戦してみましたがよくわからなかったので諦めます。ありがとうございました。 -- yana? 2007-04-10 (火) 22:36:27

教えてください

hj? (2007-04-03 (火) 15:02:06)

【使用中のOS】
:windowsxp
【使用中の携帯】
:sh901is
【使用中transcodingの名前】
:Transcoding_3GPP_AAC.ini
【質問内容(詳細に)】
:flvファイルをつかって作ったら
[flv @ 0x7e0ab4]Unsupported video codec (4)~... Seems that stream 1 comes from film source: 1000.00 (1000/1) -> 30.00 (30/1)
Input #0, flv, from 'C:\Documents and Settings\わたり\My Documents\銀魂 32話.flv':

 Duration: 00:24:39.7, bitrate: N/A
 Stream #0.0: Audio: mp3, 44100 Hz, stereo
 Stream #0.1: Video: 

Output #0, 3gp, to 'C:\DOCUME~1\わたり\LOCALS~1\Temp\7D3D907B-E67837EB-716D305D-8C5F548E.3gp':

 Stream #0.0: Video: mpeg4, yuv420p, 176x144, 14.98 fps, q=2-31, 190 kb/s
 Stream #0.1: Audio: aac, 16000 Hz, stereo, 32 kb/s

Stream mapping:

 Stream #0.1 -> #0.0
 Stream #0.0 -> #0.1

[mpeg4 @ 0x7aee38]removing common factors from framerate
Unsupported codec (id=0) for input stream #0.1
A>Dialog : 処理実行中にエラーが発生しました [Error:1]
T>Finished.
と出てしまいます。どうすればいいでしょうか?

  • Error:1は質問する前にに書いてある。 -- ('A`) 2007-04-03 (火) 15:58:37
  • SH901isなら、XviD変換のファイルも再生可能なので、そちらのほうが高画質ですよ(^-^) -- 紅い稲妻? 2007-04-03 (火) 17:00:26
  • 用済みなら消してもいいかい?長い -- 2007-04-05 (木) 09:29:44

.flvを変換したんですが・・・。

stone_ri? (2007-04-03 (火) 10:24:18)

【使用中のOS】
:windowsxp
【元の動画のコーデック】
 (真空波動研などを用いて調べてください。間違っても、拡張子(aviなど)は書かないでください)
:320x240 Sorenson H.263 0.00fps 333.06kb/s
MPEG2-LayerIII 22.05kHz 8.00kb/s CBR Mono
[FlashVideo] 00:01:41 (100.99sec) / 4,206,115Bytes
【質問内容(詳細に)】
:aviに変換すると音のみで画像が出なくなりますどうしてでしょうか

  • フラッシュ変換の項参照、専用ソフト使えってことです。 -- 2007-04-03 (火) 12:09:37
  • フラッシュビデオってMーJPEG?だっけ? -- 2007-04-03 (火) 18:27:14
  • 拡張子はswf -- 2007-04-03 (火) 21:43:28
  • すみません、便乗質問なのですが私も同じ状況になりここを見たのですが「フラッシュ変換の項」というのがよくわからないのですがどこなのでしょうか? -- 2007-04-05 (木) 02:25:13
  • 普通のフラッシュ(○○.swf)ならリンク集で。上の質問にあるようなフラッシュビデオ(○○.flv)なら再圧縮を見てください。 -- abc? 2007-04-05 (木) 07:50:57
  • 無事解決いたしました。ご教授いただきありがとうございました。 -- 2007-04-05 (木) 09:50:14

NEROを用いた動画変換について

芳宏? (2007-04-03 (火) 00:15:33)

【使用中のOS】
:win XP home SP2
【使用中の携帯】
:W33SA
【使用中transcodingの名前】
:自作
【元の動画のコーデック】
:映像MPEG1 800x600 29.97fps

音声 MPEG1-Layer2 44.1KHz 192Kbps Stereo
93.6MB 再生時間 2分09秒  

【質問内容(詳細に)】
:音声の部分を変換するエンコーダにNERO(HE-AACのところにあったもの)を使用して動画を変換したいのですが、下の設定でやってみたところ音声は問題なく再生されたのですが映像のスピードが1/10くらいになってしまい、うまくいきませんでした。また、1fpsくらいでやるとなんとか映像が追いつくのですがカクカクで非常に見づらくなってしまいます。
何か解決策はないでしょうか?

Title=AAC-LC 動画偽装 nero
Command0=""<%AppPath%>\cores\ffmpeg" -async 1 -vsync 1 -y -i "<%InputFile%>" -timestamp "<%TimeStamp%>" -bitexact -vcodec xvid -fixaspect -s 320x240 -r 15 -b 256 "<%TemporaryFile%>_1.m4v" -i "<%InputFile%>" -ac 2 -ar 48000 -f wav "<%TemporaryFile%>_1.wav""
Command1=""<%AppPath%>\cores\Nero\neroAacEnc" -br 128000 -lc -if "<%TemporaryFile%>_1.wav" -of "<%TemporaryFile%>_1.m4a""
Command2=""<%AppPath%>\cores\mp4creator60" -extract=1 "<%TemporaryFile%>_1.m4a" "<%TemporaryFile%>_1.aac""
Command3=""<%AppPath%>\cores\mp4creator60" -optimize -mpeg-version=4 -c="<%TemporaryFile%>_1.aac" "<%TemporaryFile%>_1.mp4""
Command4=""<%AppPath%>\cores\mp4creator60" -r=1 -optimize -c="<%TemporaryFile%>_1.m4v" "<%TemporaryFile%>_1.mp4"
Command5=""<%AppPath%>\cores\QT3GPPFlatten" "<%TemporaryFile%>_1.mp4" "<%TemporaryFile%>_1.3g2" -c QT_3GPP2_QCIF_AAC.ini"
Command6=""<%AppPath%>\cores\bit_ch48k" "<%TemporaryFile%>_1.3g2" "<%OutputFile%>.3g2""
Command7="cmd /c "del "<%TemporaryFile%>*.*"""

  • 音声がAAC-LCならneroではなくffmpegでやったほうがいいのでは? 音が悪いといわれてはいるが、俺は大して気にならない。ってか、音声と動画を変換後に結合させる方法は問題が起こりやすいから自分で解決できない場合はやめておいたほうがいいかもね -- 2007-04-03 (火) 14:29:17
  • 惜しいですね。設定を載せておきます。 -- ('A`) 2007-04-03 (火) 16:07:54
    • Command0=""<%AppPath%>\cores\ffmpeg" -y -i "<%InputFile%>" -timestamp "<%TimeStamp%>" -bitexact -async 1000 -qmin 1 -qmax 31 -vcodec xvid -fixaspect -s 320x240 -r 15 -b 384 -an -muxvb 192 "<%TemporaryFile%>_1.m4v" -i "<%InputFile%>" -ac 2 -ar 48000 -f wav "<%TemporaryFile%>_1.wav"" Command1=""<%AppPath%>\cores\Nero\neroAacEnc" -br 192000 -lc -if "<%TemporaryFile%>_1.wav" -of "<%TemporaryFile%>_1.m4a"" Command2=""<%AppPath%>\cores\mp4creator60" -extract=1 "<%TemporaryFile%>_1.m4a" "<%TemporaryFile%>_1.aac"" Command3=""<%AppPath%>\cores\mp4creator60" -optimize -mpeg-version=4 -c="<%TemporaryFile%>_1.aac" "<%TemporaryFile%>_1.mp4"" Command4=""<%AppPath%>\cores\mp4creator60" -r=15 -optimize -c="<%TemporaryFile%>_1.m4v" "<%TemporaryFile%>_1.mp4" Command5=""<%AppPath%>\cores\QT3GPPFlatten" "<%TemporaryFile%>_1.mp4" "<%TemporaryFile%>_1.3g2" -c QT_3GPP2_QCIF_AAC.ini" Command6=""<%AppPath%>\cores\bit_ch48k" "<%TemporaryFile%>_1.3g2" "<%OutputFile%>.3g2"" Command7="cmd /c "del "<%TemporaryFile%>*.*"""
  • 何がダメだったかと言うと、Command4の-r=15の値をCommand0の-r 15と同じにしないといけないのです。 -- ('A`) 2007-04-03 (火) 16:09:38
  • ただし何度も言っていますが音ずれの原因になるし変換時間も長くなるので正直オススメできません。ffmpegのfaacも十分ビットレートを取れば問題ないし。 -- ('A`) 2007-04-03 (火) 16:10:37
  • できました!ありがとうございます。載せて頂いた設定でなぜかエラーが発生してしまったので教えて頂いた通りにCommand4の-r=の値を変えてみましたところ、問題なく変換できました。再生してみましたところ、音ずれとかも問題ないみたいです。 -- 芳宏? 2007-04-03 (火) 23:00:53
  • しかしこの設定でやると手持ちのW33SAでは映像のビットレートを512kbps以上にすると再生不可になってしまうようなので現在原因を調査中です・・・ -- 芳宏? 2007-04-04 (水) 00:07:16
  • あぁそれはビットレート偽装が必要だね。bit_ch48kの変わりにesyu氏のページにあるファイルサイズ指定分割の.zipの中にあるbit_ch144k48k.exeを使うと映像部もまとめて偽装してくれるのでオススメです。(記事へ直リンすいません。 -- ('A`) 2007-04-04 (水) 00:24:49
  • 上記の通りのビットレート偽装して、W33SAで再生できました(QVGA xvid QB4 30fps / AAC-LC 192kbpsで確認)。これでひとまず問題は解決しました。('A`)さん、ご丁寧な解答をありがとうございました! -- 芳宏? 2007-04-05 (木) 01:54:38

エラー1について

DETECTIVE? (2007-04-02 (月) 20:47:50)

【使用中のOS】
:windows XP home edition
【使用中の携帯】
:W51CA
【使用中transcodingの名前】
:Transcoding_3GP2_AAC.ini
【質問内容(詳細に)】
:エラー1と表示されて、変換できません。
多分,世隼廚い泙后
質問する前にを見ましたが、FLVからAVIに変換してやってみましたが、まだエラー1と表示されます。


どうすればいいですか?

  • AVIの中身コーデックはなんですか?それによっては変換できません。 -- ('A`) 2007-04-02 (月) 21:27:15
  • どうやって調べるんですか? -- DETECTIVE? 2007-04-02 (月) 21:45:06
  • すみません。わかりました「DivX」です -- DETECTIVE? 2007-04-02 (月) 21:49:48
  • それは映像部のコーデックだけです。音声部のコーデックも調べてください。oggだったりすると変換できません。 -- ('A`) 2007-04-02 (月) 22:28:26
  • 音声部は多分それです。変換させるには、どうすればいいですか? -- DETECTIVE? 2007-04-02 (月) 23:28:17
  • 多分って・・・^^;再圧縮してください。 -- 2007-04-03 (火) 13:17:26
  • FLVの時点でデータが破損していたら再圧縮出来ても破損したままだったりするから諦めも肝心かも。ってか、youtube関連ならなおの事諦めてください -- 2007-04-03 (火) 14:23:43

映像だけが早送りのようになる

富士? (2007-04-02 (月) 01:27:21)

【使用中のOS】
:WinXP SP2

【使用中の携帯】
:W51CA

【使用中transcoding設定】
:Transcoding_W51CA.ini

【元の動画のコーデック】
:MPEG Layer-3

【質問内容(詳細に)】
:aviから3g2に変換できないファイルがあったので再圧縮の項目にあるFFdshowとAviSynthを
インストールし、指示通りに設定を行ったところ変換できるようになりました。
ところがいざ再生してみると音と映像がずれてしまいます。
音ずれの項目のような「はじめは問題ないのにだんだんズレが大きくなってくる」というものではなく、
最初から映像だけが早送りのように進んでしまうというものです。

  • async 1も加えてみましたが効果はありません。
    設定等の変更で改善できませんでしょうか?アドバイスよろしくお願いします。
  • ビデオコデックがワカラン〜元の動画コデックがMP3?? -- 2007-04-02 (月) 01:51:47
  • 僕もその経験がありますがそのときはwmvファイルの時でした。動画の映像コーデックと音声コーデックを教えてください。 -- あると? 2007-04-02 (月) 19:52:11
  • 調べてみたところ24Bit Windows Media Video 9 119.88fps 170200f 889.67kb/s MPEG1-LayerIII 48.00kHz 192.00kb/s CBR Stereoでした -- 富士? 2007-04-02 (月) 20:29:46
  • 参考にしたいのであるとさんの対処法を伺いたいのですが。 -- 富士? 2007-04-02 (月) 23:28:16
  • 僕はTMPGEncというエンコーダーを使っていったんmpegに再圧縮してから変換しました。 -- あると? 2007-04-03 (火) 20:39:02
  • やっぱり再圧縮しないとダメですか・・・。他に心当たりがある方はいらっしゃりませんか? -- 富士? 2007-04-04 (水) 15:46:14
  • この調子だとWMVの悪寒…、WMVだったら下の方のコメントにあったけどhttp://www.nurs.or.jp/~calcium/wiki/index.php?Avisynth%A4%F2%BB%C8%CD%D1%A4%B7%A4%C6%C6%C9%A4%DF%B9%FE%A4%E0#content_1_0 ←ここを見て設定すればwmvも変換できるよ、但し、良くあるaviとして扱われているwmvは、拡張子をwmvに変えないと変換できないから注意して。変換し終わったらaviに戻せばいいから。 だそうです。再圧縮するのがめんどくさいならね。 -- 2007-04-06 (金) 09:33:53
  • できました!指示通りにやったところ問題なく再生されます。本当にありがとうございました -- 富士? 2007-04-07 (土) 17:16:58

冒頭のノイズと音ズレ。

西山? (2007-04-01 (日) 16:49:25)

【使用中のOS】
:WinXP SP2

【使用中】
:iPod w/iTunes

【使用中transcodingの名前】
:iPod用から「add iTunes」を削除したもの

【質問内容(詳細に)】
:Aviutlにて作成したdivxを変換したところ、
冒頭に一瞬「ブチッ」というノイズが入り、さらに映像と音がズレます。
元のaviファイルにwaveヘッダ付きのmp3を使っているのが原因でしょうか。
そのほかのファイルでは問題ありません。
もしそれが原因なのでしたらmp3を使用した状態での解決策を教えていただけると幸いです。
よろしくお願いします。

  • フレームレートの小数点以下3桁目が0以外の場合はFFMPEGでは音と映像がズレますのでフレームレートをしらべてみてください。 -- 2007-04-01 (日) 21:50:00
  • 真空波動研では29.97fpsでした。 -- 西山? 2007-04-02 (月) 03:14:55

無題

芳宏? (2007-04-01 (日) 16:18:26)

【使用中のOS】
:windows XP home SP2
【使用中の携帯】
:W33SA
【使用中transcodingの名前】
:自作
【質問内容(詳細に)】

:動画を変換して3g2などにする際に、音声の部分を変換するエンコーダにNEROを使用することはできないでしょうか??

  • 出来ないことはありませんが音ずれする可能性が非常に高いです。それでもやりたいならHE-AACの所にあるau向けのiniにある動画偽装を参考にどうぞ。 -- ('A`) 2007-04-01 (日) 22:18:38
  • 動画偽装を参考にQVGAの15fpsで試してみましたところ、音声は問題なく再生されたのですが映像のスピードが1/10くらいになってしまい、1fpsくらいでやるとなんとか映像が追いつくのですがカクカクで非常に見づらくなってしまいます。 何か解決法はないでしょうか?? -- 芳宏? 2007-04-02 (月) 22:07:40
  • まず、あなたが作った設定を載せてください。どこがダメなのか分かりませんので。 -- ('A`) 2007-04-02 (月) 22:27:19
  • 新しく質問版に書き込みましたのでそちらからお願い致します。 -- 芳宏? 2007-04-03 (火) 00:18:29
  • 別々に変換してQuickTimeでくっ付けたら上手くいったナリ -- 2007-04-03 (火) 14:25:11

場違いかも

? (2007-04-01 (日) 15:25:07)

【使用中のOS】
:windows XP SP2
【使用中の携帯】
:PSP
【使用中transcodingの名前】
:PSP向け設定
【質問内容(詳細に)】
:
もともと3:4の動画の上下を-cropで削って16:9にしてから480×272にしたのですが、PSP上で再生できません。
解像度以外の設定は「AVC QVGA/29.97fps/VBR QB25 ステレオ/128kbps」を使用しています。ただ単に-sを変えるだけではだめなのでしょうか?

  • え〜、自己解決しました。VIDEOフォルダに突っ込まないとだめだったんですね…4時間損した… -- ? 2007-04-01 (日) 16:20:55

教えてください。

ryo? (2007-03-31 (土) 23:52:13)

【使用中のOS】

:WindowsXP

【使用中の携帯】

:iPod 80GB

【使用中transcodingの名前】


【質問内容(詳細に)】

Dialog : 処理実行中にエラーが発生しました [Error:1]

とでて変換できないのですが・・・
aviなどに変換すれば解決します。と書いてあったのですがそれはなにをどうやればいいのでしょうか?あとtranscodingというのはなんなのでしょうか?無知ですみません。

  • その様子だとTranscoding.iniはデフォルトの物を使っているようですね。 Setup.exeで何を選んだかとりあえず書いてください。 あと、動画のコーデックが未記入ですよ。ちゃんと書いてください -- はdsn? 2007-03-31 (土) 23:55:09
  • Setup.exeはMP4ファイルはiPod設定で動画のコーデックというのはQuickTime Playerのことでよろしいんでしょうか? -- ryo? 2007-04-01 (日) 00:24:57
  • Transcoding.iniはそれでいい。コーデックはここ参照。 -- ('A`) 2007-04-01 (日) 00:30:02
  • 回答ありがとうございます。リンク先を参照させてもらったのですがどのコーデックにすればいいのでしょうか?アドバイスよろしくお願いします。 -- ryo? 2007-04-01 (日) 02:02:33
  • いゃ、そうではなく。変換しようとしている動画のコーデックを調べなさいと言っているのです。 -- ('A`) 2007-04-01 (日) 05:09:24
  • この調子だとWMVの悪寒…、WMVだったら下の方のコメントにあったけどhttp://www.nurs.or.jp/~calcium/wiki/index.php?Avisynth%A4%F2%BB%C8%CD%D1%A4%B7%A4%C6%C6%C9%A4%DF%B9%FE%A4%E0#content_1_0 ←ここを見て設定すればwmvも変換できるよ、但し、良くあるaviとして扱われているwmvは、拡張子をwmvに変えないと変換できないから注意して。変換し終わったらaviに戻せばいいから。 だそうです。再圧縮するのがめんどくさいならね。 -- 2007-04-01 (日) 15:57:45

無題

りこ? (2007-03-31 (土) 21:48:40)

【使用中のOS】
:XP HOME
【使用中の携帯】
:W43SA
【使用中transcodingの名前】
:Transcoding_W43SA.ini
【質問内容(詳細に)】
:某NN動画からflvファイルを落とし、変換を試みたのですが何故かエラーが起きてしまいます。
今までは変換できたので中身が特殊なのかなと思い波動研で開いてみたら、
「On2 VP6」と見慣れない文字が・・・。
他のflvも試したところやはりこのタイプだとエラーが起きてしまいました。

ちなみにエラー文はこれでした。

A>[avs @ 0x410dd0]failed to open avs : DirectShowSource: Could not open as video or audio.Video returned:

 "DirectShowSource: couldn't open file C:\xxxx.flv:ファイルを再生できません。 この形式はサポートされていません。 
 "Audio returned:  "DirectShowSource: couldn't open file C:\xxxx.flv:ファイルを再生できません。 この形式はサポートされていません。 

A>Dialog : 処理実行中にエラーが発生しました [Error:1]

変換できる方法はありますでしょうか?

  • エラーにあるようにサポートされてないんでしょう。再圧縮しなさい。 -- ('A`) 2007-03-31 (土) 21:54:17

Error-2048

通り? (2007-03-31 (土) 21:32:45)

【使用中のOS】
:WindowsXP
【使用中の携帯】
:iPod 30GB
【使用中transcodingの名前】
:Transcoding_iPod.ini
【質問内容(詳細に)】
:題名の通りなんですが、AVIファイルの変換中に「Error-2048」と出てきます。
最新のQuick Time Playerを再インストールしてから試してもみたんですが、結果に変化はなし。
ちなみに、AVIファイル全てが変換できないのではなく、変換できるものとできないものがあります。
変換できないAVIファイルは、どうすれば変換できるようになるでしょうか?

  • AVIはAVIでも中身のコーデックによって全くの別物になります。おそらく変換できないAVIは変換君が対応したいないコーデックを使用してると思うので再圧縮しなさい。 -- ('A`) 2007-03-31 (土) 21:57:11

かなり困ってます!!!!!

(2007-03-31 (土) 01:17:12)

【使用中のOS】
:xp sp2
【使用中の携帯】
:FOMA F700IS
【使用中transcodingの名前】
:ASFファイル, SD-VIDEO形式 音声G.726一般設定 (実験中)
:3GPPファイル, 音声AAC形式一般設定 動画XviDエンコード
【質問内容(詳細に)】
:.スタマイズしてみましたがモノラルをステレオにかえただけで
エラーが出た理由と携帯電話で動画の早送りができない理由を
だれか教えてください!あと、
[Item0]
Title=QVGA動画高画質512kbps 29.97fpsモノラル
Command0=""<%AppPath%>\cores\ffmpeg" -y -i "<%InputFile%>" -bitexact -vcodec mpeg4 -s 320x240・・・
の-vcodec のつぎの、 mpeg4 の部分をxvidやh264にかえる方法を
教えてください!友達との約束で、できれば
4月10日までにお願いします。
:XviDをH.264に変える方法をいつでもいいので教えてください。

  • 【使用中transcodingの名前】の部分を間違って記入してすみません。誤字脱字があるかもしれませんのでご注意を。 -- かなり困ってます!!!!!の記事を書いた人? 2007-03-31 (土) 01:24:01
  • -vcodecの次のmpeg4を変えるには-vcodec xvidと変更するだけで問題ないです。携帯で早送りできないのはその携帯の仕様だと思います。諦めましょう。 -- ('A`) 2007-03-31 (土) 02:57:14
  • ,硫酸G.726はステレオ出来ないよ。それとAACみたいな音にならないケータイで撮影したムービー程度にしかならないよ。 -- vava? 2007-03-31 (土) 09:14:41
  • H.264は再生できないかも?最近の機種はサポートされてきているけど -- vava? 2007-03-31 (土) 09:16:07
  • -vcodec のつぎの、 mpeg4 の部分をxvidやh264にかえると、エラーが出ます -- かなり困ってます!!!!!の記事を書いた人? 2007-03-31 (土) 10:16:56
  • XviDをH.264に変えても動画の変換中にエラーがでます(上のも同じエラーがでます。) -- かなり困ってます!!!!!の記事を書いた人? 2007-03-31 (土) 10:22:03
  • xvidのコーデックを入れなさい。H.264は変換君の最新版を使えば変換できるはずです。 -- ('A`) 2007-03-31 (土) 14:01:45
  • 変換中のエラーならxvidのコーデックを入れてもダメですよ。変換君は内蔵されているコーデックだけで変換しますのでコーデックを入れても意味がありません。再生時には必要ですが。 -- あると? 2007-03-31 (土) 19:27:42

左右の反転

HEDS? (2007-03-30 (金) 16:44:40)

【使用中のOS】
:XP
【使用中の携帯】
:911SH
【使用中transcodingの名前】
:Transcoding_3GPP_AAC_XviD
【質問内容(詳細に)】
:動画の左右を反転させたいのですが方法がわかりません。教えてください。

  • 携帯動画変換君では左右反転はできません。別のエンコーダーでできるものがあると聞いたことがありますので試してみてはどうでしょうか? -- あると? 2007-03-30 (金) 19:20:21
  • そうですか…仕方がないので別のエンコーダーを探して見ます。 -- HEDS? 2007-03-31 (土) 17:30:12
  • これはどうでしょうか? -- abc? 2007-03-31 (土) 20:14:27

早送り・巻き戻し等が出来ない

あう (2007-03-30 (金) 16:20:19)

使用中のOS】
:xp
【使用中の携帯】
:W52T
【使用中transcodingの名前】
:
【質問内容(詳細に)】
:初歩的なものだったらスイマセン、ほかの掲示板などを見ても解決できなかったので質問します。自分の携帯で再生などは出来るのですが早送りや時間指定スキップなどが出来ません、機種的なものでしょうか?解るかた教えてください。

  • どこで見たか忘れちゃったけど、撮影した動画に偽装すれば早送りなどができるようですよ。W52Tの通りに変換すれば偽装されているはずなので問題ないはずです。 -- ('A`) 2007-03-31 (土) 02:46:15

音がずれていく・・・

のんびりマシン?? (2007-03-30 (金) 15:50:37)

変換君対応機種にも載っている「W51S」を使っていて、
(推奨?)設定が記載されているものを使用し、3g2で携帯で再生すると
音声が遅れてしまいます。
使用している元ファイルは「ハレ晴れユカイTVスペシャルバージョン」を使用しており、aviファイルとしてエンコードしたものです。
元ファイルは音ずれはしていませんので、変換君で変換の際にずれると思われます。
解決法はありますでしょうか。
ちなみに、変換されたファイルをPC上で再生してもズレが確認されました。

  • 書き忘れですが、PCのOSはXPSP2です。 -- のんびりマシン?? 2007-03-30 (金) 15:56:04
  • MenuBarくらいはきちんと読んでください。 -- ('A`) 2007-03-30 (金) 16:03:06
  • 読みましたが、QVGA15fpsモノラル で変換すると音ずれはしないんです。 -- のんびりマシン?? 2007-03-30 (金) 16:29:10
  • ヒント:QVGA15fpsモノラルは-r 14.985。W51Sに載ってる設定は-r 15。 -- ('A`) 2007-03-30 (金) 22:45:42

できないわけではないんですけど・・・

ピカチュウ? (2007-03-30 (金) 00:33:49)

【使用中のOS】~
:Windows Vista 32bit~
【使用中の携帯】~
:iPod 5G 30GB~
【使用中transcodingの名前】~
:Transcoding_iPod~
【質問内容(詳細に)】~
:vobファイルを最高画質で変換しようとすると「Windowsホストプロセス(Rundll32)は動作を停止しました」と出るんです。数回出た後、変換君がやっと処理に入ると出なくなります。AVIのファイルで試すとできるのですが・・・何ででしょうか?~

  • こちらの記事No.674に同じエラーが出る人が居るようです。参考にしてみては? -- ('A`) 2007-03-30 (金) 00:48:43
  • Quick TimeがVistaでは動作しませんのでそれによるエラーだと考えられます。 -- あると? 2007-03-31 (土) 19:34:30

パソコンの電源が落ちる

???? (2007-03-29 (木) 22:46:38)

大きいファイル(2時間くらいの動画)を変換しようとすると
必ずパソコンの電源が落ちます。
同じ動画を半分か3分の1に分けてエンコードすると落ちないんですが。
CPUの能力を超えているのでしょうか?
だとすると、もう少しCPU負荷を落とす方法ってあるのでしょうか?
市販のDVDエンコードソフト等で電源が落ちた事はありません。
ちなみにPCはアスロン64・3000+ メモリ1.5GB OS:XPです。

  • 電源が切れるのは2時間くらいの動画を変換し始めた直後ですか?それともある程度変換が進んだ段階でですか?後者なら熱が問題だと思います。PCのカバーなどを空けてCPUの温度が上がらないようにしてください。 -- ('A`) 2007-03-29 (木) 23:33:34
  • それCPUに原因があると思う、自分も経験ある。ノートPCのペン4(3,2Ghz)が爆熱で電源が頻繁に落ちたよ。 対策としては電源オプションで最小の電源管理にしてクロックを半分に制限するとか?でも、 あなたのCPUじゃ半分になったら役に立たないだろうから、原始的に氷で冷やすとか扇風機で冷やすとかをオススメします。 CPU、HDDの温度を常にモニターするソフトを導入したほうがいい。 -- koto? 2007-03-30 (金) 00:53:57
  • 温度が関係している事は予想がつくのですが、他のエンコードソフトで、もっと大きいファイルを長時間変換しても落ちた事が無いので、ソフト側でなんとかならないものかと思って… -- スレ主? 2007-03-30 (金) 01:35:02
  • 他のエンコソフトとやらが分からないからなんとも言えないが、無茶してるとパソ壊れるよ←自分実際にやちゃったから修理orz -- koto? 2007-03-30 (金) 01:40:05
  • 3GP_converter.iniいじってシステムの優先度変えてみたりするといいかもね。 -- 2007-03-30 (金) 12:55:09
  • 優先度は「低」なんですが「高」にした方がいいのでしょうか?「低」の方が負担少ないように思えるのですが?? -- スレ主? 2007-04-01 (日) 00:34:04
  • 途中から変換君が全く関係ないハードの問題なのは自覚してるよね? あなたの場合はPCのCPU周りの放熱環境が原因だからCPUクーラーを強力なものに換装すればいい。設定面ならbiosからクロック数をさげればいい(スペックガタ落ち覚悟でよろしく) まあ、ハードの問題だからソフトで出来ることは限られてるよ。「お勧めクーラーは?」なんて聞くのは他の掲示板でどうぞ。ここはそんなことを聞くところじゃないもので… -- 2007-04-01 (日) 00:59:08
  • 上記にも書いてありますが、ソフト側でなんとかならないものか?と聞いているので意味不明の返答をされても困ります。 -- スレ主? 2007-04-01 (日) 01:41:48
  • ソフト側でなんとかならないからハードの話が出ているんですよ。冷却関係をなんとかしましょう。無理なら諦めるしかないでしょう。 -- ('A`) 2007-04-01 (日) 13:51:18
  • どう考えても変換君の問題ではなくハード側の問題です。他のソフトで落ちない理由は不明ですが、マシンが不安定になってることは間違いないです。クーラー周りに埃がたまっていたりしませんか。負荷を下げる方法といえば、優先度を下げるかダウンクロックかしかありません。 -- 2007-04-02 (月) 21:42:38
  • 変換君に「問題がある」とは一言も言って無いのですが…。ソフトでエンコードするのにハードが高スペックじゃないと出来ないと言うのは意味不明です。変換速度は気にしませんから。 -- スレ主? 2007-04-02 (月) 22:02:46
  • 今、ここに書かれている状況だけでは判断は難しいかと思いますが・・・・私の環境では6時間のエンコードでも落ちたことはありません。やはりPCの問題では?動画のエンコードは高スペックのPCが断然有利かと思われます。スペックが低いとコマ落ちが心配です。 -- てつ? 2007-04-02 (月) 22:37:14
  • スレ主さんこれだけアドバイスされて、PCのケース開けて様子を見てみましたか? -- 2007-04-03 (火) 20:33:48
  • (続き)コメントを見る限りでは全く解決しようとしていないように見えるのですが。それに、いろいろと意味を取り違えられているようで・・・変換速度を気にしないと言うのなら、BIOSからCPUクロック下げるのが一番です。わからないなら調べてください。はっきり言ってそれしかないです。 -- 2007-04-03 (火) 20:42:40

FLVは・・・

kuzuia? (2007-03-29 (木) 17:01:19)

【使用中のOS】
:Windows XP home SP2
【使用中の携帯】
:softbank 911SH
【使用中transcodingの名前】
:AVIファイル, MPEG4一般設定
【質問内容(詳細に)】
:FLVファイルの変換ができないのですが、このソフトの仕様でできないのですか?

  • FLVは確かFLV1のみ変換可能だったと思います。その他のFLV4等は別のソフトを使ってavi等にしてからじゃないとできないです。 -- あると? 2007-03-29 (木) 19:32:41
  • YOU TUBEなどから取った動画だと時々変換が終わった後にムービーが再生できないという状態に陥るのですが、最初から変換できないのですか?私はできていますけど。(Windows Vista32bitです) -- ちょっと覗いて・・・? 2007-03-30 (金) 00:13:16
  • 変換できなかった場合、その大元、つまりFLVに変換する前の動画が必要になってきます。そのため、基本的には対処のしようがありません。しかし、場合によっては再圧縮によって変換不可能な状況を回避できるので試してみる価値はあると思います。余談ですが、vistaで正常に実行可能な動画変換ツールがあるかどうかはXPユーザーの私はあいにく情報を持ち合わせていません。やるのであれば、ご自分で様々な可能性を考慮し、試してみてください -- 2007-03-30 (金) 02:37:02
  • みなさんありがとうございます。変換しようとしているのはyoutubeから取得したファイルです。ドラッグ&ドロップしても何も反応が無い状態です -- kuzuia? 2007-03-30 (金) 11:42:20
  • youtube関係は著作権が絡んでくるから自己責任で解決してください。すでに解決策は出てるけれど。 -- ('A`) 2007-03-30 (金) 13:26:50

変換後のエラー表示について

mu? (2007-03-29 (木) 16:36:05)

【使用中のOS】
:XP
【使用中の携帯】
:
【使用中transcodingの名前】
:
【質問内容(詳細に)】
:過去スレあったらごめんなさい。
MP4に変換しようとして、処理が100%になったあと、

error
Faild assertion
asf->packet-replic-size=8
atline 511 of file.asf.c
という感じのメッセージが表示されるのですが・・・
ファイルは変換されているようなんですが、再生できません。
なにかよい方法があれば、お教えください。お願いします。

  • transcodingの設定がわからないと何にも言えないんですが。 -- ('A`) 2007-03-29 (木) 16:46:26

無題

百子? (2007-03-29 (木) 08:21:49)

誰かソフトバンクでDLしても聞けるような設定のしかた知らないですか????

  • SoftBankは今のところ最大ダウンロードサイズが300KBなので実用的ではないです。PCを使っていれましょう。 -- 2007-03-29 (木) 18:08:07

SH903iの3GPファイルのリネームが面倒な件について

あんぱんまそ? (2007-03-29 (木) 00:29:26)

ファイル名をMMF0001.3gpとかMOL001.3gpとかにリネームするのが面倒です。
しかも元のファイル名が消えるので何のファイルだかわからなくなる訳ですが
自動でリネームしてタイトルもつけてくれるような便利なものないですか?

  • MMF0001.3gpの方は知らんがMOL001.3gpならF900iにリンクがあるF900iSDメモリツールを使うとファイル名つけて転送してくれるよ。SH900iでもタイトルついてたから大丈夫でそ。 -- ('A`) 2007-03-29 (木) 00:39:09
  • MiniSDなどに書き込むときはFOMA FシリーズデータリンクソフトのMiniSD ユーティリティを使えば題名をMOL001.3gpとかにしなくても、「ドラえもん ドンブラ粉」のようにタイトルを入力すればほとんどのFOMAで「ドラえもん ドンブラ粉」のようにタイトルを表示してくれます。ただし情報更新するとMOL001.3gpなどに戻ってしまうのでご注意を!! -- かなり困ってます!!!!!の記事を書いた人? 2007-03-31 (土) 01:49:26

W51Pでは携帯動画できませんか。

CHIE? (2007-03-28 (水) 22:39:07)

記事を見ると、うまくいってないようですが。

  • W51Pの中身はほぼW43CAと同じようです。W43CAを参考にしてみてはどうでしょうか。 -- ('A`) 2007-03-28 (水) 22:55:25
  • ありがとうございます。やってみま〜す。 -- CHIE? 2007-03-28 (水) 23:03:26

SD保存について

? (2007-03-28 (水) 16:34:29)

【使用中のOS】
:XP
【使用中の携帯】
:
【使用中transcodingの名前】
:
【質問内容(詳細に)】

SD保存の方法を見たのですが、初期の変換君のプログラムが違うのですが、どうしたらいいでしょうか?
プログラムは
[Item1]
Title=QCIF標準画質15fpsモノラル
TitleE=QCIF Normal quality 15fps Mono
Command0=""<%AppPath%>\cores\ffmpeg" -y -i "<%InputFile%>" -timestamp "<%TimeStamp%>" -bitexact -vcodec mpeg4 -fixaspect -s 176x144 -r 14.985 -b 190 -acodec amr_nb -ac 1 -ar 8000 -ab 12 -f 3gp -muxvb 64 -muxab 32 "<%TemporaryFile%>.3gp""
Command1=""<%AppPath%>\cores\QT3GPPFlatten" "<%TemporaryFile%>.3gp" "<%OutputFile%>.3gp" -c QT_3GPP(MobileMP4)_QCIF_AMR.ini"
Command2="rm "<%TemporaryFile%>.3gp""

です。

  • あなたの機種がなんなのか分からないと何にも言えないのですが…。それとSD保存ってのはPC→SDなのか携帯→SDなのかも分からないと…。 -- ('A`) 2007-03-28 (水) 17:34:26
  • 機種は33SAです。SD保存は携帯→SDです。PCフォルダにはいれれるんですけど、本体に移動したらSDに入れられません -- ? 2007-03-28 (水) 17:50:44
  • まず質問する前に機種ごとのページくらいは見なさい。W33SA/SAに詳しく書いてある。 -- ('A`) 2007-03-28 (水) 17:55:32
  • 偽装着うた関連ツールというのは見たんですけど、プログラムが違うんです -- ? 2007-03-28 (水) 18:06:28
  • プログラムが違うというのはどういうこと?変換君のバージョンが古いなら最新のを入れればいいし、設定のことを指しているのならW33SA/SAに書かれている設定を使えばいいと思うんだけど。 -- ('A`) 2007-03-28 (水) 18:09:59
  • 最新のは034ですよね?プログラムの中にCommand0=(…略…)"<%AppPath%>\cores\soundonly_%02d.jpg"(…略…)のところが最初に書いたのですが、見当たらないんです -- ? 2007-03-28 (水) 18:16:19
  • イマイチ状況が伝わってこないんだけど、とりあえずTranscoding.iniカスタマイズを読みなさい。 -- ('A`) 2007-03-28 (水) 18:24:43
  • Command0=(…略…)"<%AppPath%>\cores\soundonly_%02d.jpg"(…略…)の部分のプログラムが私のはCommand0=""<%AppPath%>\cores\ffmpeg" -y -i "<%InputFile%>" になっているんです。Transcoding.iniカスタマイズは読んだのですが、わかりません -- ? 2007-03-28 (水) 18:48:10
  • いゃだから、違うなら書き換えればいいんだって。W33SAのページにある設定をコピペして使えばいいと。 -- ('A`) 2007-03-28 (水) 18:51:31
  • 書き換えてもできません・・・・・・・エラーの1とでます -- ? 2007-03-28 (水) 19:35:28
  • 質問する前に -- ('A`) 2007-03-28 (水) 19:37:47
  • 普通に変換はできるんですけど、SD用に書き換えた時だけできないんです -- ? 2007-03-28 (水) 19:41:07
  • W33SAにある設定は俺も再生確認済みだからその設定だけ変換できないってのはおかしい。コピペミスがないか確認する。/ ってか略さなくていいから、きちんと具体的に説明してくれないとそちらの状況がよくわかりません。 -- ('A`) 2007-03-28 (水) 19:46:48
  • コピペしたのはそのまま変換につかえるんですけど、SD用に書き換えると私の書き換え方が違うのか、変換できなくなるんです。 -- ? 2007-03-28 (水) 19:58:28
  • ん?W33SAにある設定を使えば携帯→SDにも移動できるから書き換える必要はありませんよ。 -- ('A`) 2007-03-28 (水) 20:01:22
  • そうなんですか?どれを使えばいいか教えてください。いくつもあってどれを使えばいいのかわかりません。 -- ? 2007-03-28 (水) 20:06:38
  • W33SAに載っている設定はすべて携帯→SDが可能なので自分の使用用途にあったものを使いなさい。 -- ('A`) 2007-03-28 (水) 20:12:12
  • ってか聞く前に全ての設定で変換して試してみるなど自分で努力してください。 -- ('A`) 2007-03-28 (水) 20:13:12
  • すいません。 -- ? 2007-03-28 (水) 20:14:29
  • あの・・・・・・・33SAには設定ファイルのページがないんですけど。32SAと31SAを見たらあったですが・・・・・・ -- ? 2007-03-28 (水) 20:25:02
  • だから書いてある設定をコピペして使いなさいって。コピペして変換できてるんでしょ? -- ('A`) 2007-03-28 (水) 21:03:20
  • やってみたんですけど、miniSDにいれたら、再生しようとしたら データ不正です と出るんですけど。 -- ? 2007-03-29 (木) 11:38:24
  • 再圧縮しなさい。これでできないなら諦めてください。PCに関する基礎知識不足かと。 -- ('A`) 2007-03-29 (木) 13:29:40
  • してみました。再生はOKでしたが、音声が出ませんでした。 -- ? 2007-03-29 (木) 17:38:06
  • テンプレが穴だらけなのに音が出ないとだけいわれてもねぇ… ココまで親切にされてればいい方なんだが… まず、質問する以前に変換君を使用する上で必要な知識を身につけなさい。それがないと我々が何を言おうとあなたは理解できません -- 2007-03-29 (木) 19:48:14
  • わかりました。すいません -- ? 2007-03-29 (木) 19:57:43
  • 携帯がマナーになっていました。マナーをといたら音声も再生できました。お騒がせしてすいません。 -- ? 2007-03-29 (木) 20:23:04

SH903iの全画面表示

(2007-03-28 (水) 02:14:22)

【使用中のOS】
:
【使用中の携帯】
:SH903い
【使用中transcodingの名前】
:
【質問内容(詳細に)】
動画を全画面表示にしたとき、
通常では抹茶色の淵が出来てしまうのですが、
これをなくして完全な全画面にはできないのでしょうか?

SH903iのTranscodingには下記の設定で1時間以上再生可能
しかなかったので質問します。

  • SH903iにあるWQVGAで変換すれば液晶画面いっぱいで表示できるはずなんだけど。 -- ('A`) 2007-03-28 (水) 02:26:04
  • 元画がワイド(16:9とか)なら('A`)さんが言うように全画面になります。元画が4:3なら緑の淵が出来てしまいます。iモーション再生状態でサブメニュー-ワイドモード切替で全画面には成りますが、縦横比を変えず引き伸ばしますから上下が切れてしまいます。 -- てつ? 2007-03-28 (水) 19:33:02
  • それは4:3の動画をそのまま4:3の設定で変換したものですか?それともWQVGAの設定で4:3の動画を変換した場合ですか? -- sw? 2007-03-28 (水) 19:38:07

P902is

ry? (2007-03-28 (水) 00:58:08)

:
【使用中のOS】
:XP
【使用中の携帯】
:P902is
【使用中transcodingの名前】
:
【質問内容(詳細に)】
:
変換君でこの機種の着信設定できる着うたはどうやって作れば良いんですか?
あとどのようにして携帯に保存したら宜しいのでしょうか?

  • 携帯動画変換君 対応機種情報を見ましょう -- 2007-03-28 (水) 01:22:50
  • 見てやったのですが…出来ないです。無知ですみません。 -- ry? 2007-03-28 (水) 19:42:23
  • P902iSのページだけじゃなくて同じメーカーのページくらいは全て見ましょうね。P903iに全て書いてあります。 -- ('A`) 2007-03-28 (水) 19:48:31

Camouflage_MOVIE_for_機種名 で

AS? (2007-03-27 (火) 20:37:15)

【使用中のOS】
:XP
【質問内容(詳細に)】
Camouflage_MOVIE_for_W32H.INI と Camouflage_MOVIE_for_W42S の
併用で偽装は可能ですか?

  • 意味がよく分からないんだけど、Camouflage〜〜〜は2つ使用しても意味はありませんよ。 -- ('A`) 2007-03-27 (火) 21:19:59
  • それでは2機種間で両方とも再生不具合なく再生できないのですね? -- AS? 2007-03-27 (火) 21:37:08
  • 再生だけが目的なら偽装はあまり考える必要はないんじゃないかな?再生できない場合は別だけど… 同時に複数の機種用に偽装を反映させることは不可能です。もし、偽装を2回行った場合、最後に行った偽装のみが反映されるはずです。しかし複数回の偽装を行った場合、全ての機種で正常な再生が出来なくなるかも知れません。まあ、気になるならやってみればいいんじゃない?ってか、具体的にやりたいことがあるなら試してみればいい。出来るとは補償しないけど -- 2007-03-27 (火) 21:39:46
  • HDDに余裕があるならCamouflage〜〜〜を通す前にOutputで出力させてそのファイルを保存しておけばいい。そんでもってW32Hで見たい時はCamouflage_MOVIE_for_W32H.iniにだけ通して見る。W42Sで見たい時も同様にCamouflage_MOVIE_for_W42S.iniに通して見ればいいと思うよ。 -- ('A`) 2007-03-27 (火) 22:03:01
  • ありがとうございます、試してみます。 -- orz? 2007-03-28 (水) 02:19:21

音出力のみの場合の画像のスケーリングをやめるには?

orz? (2007-03-27 (火) 17:08:10)

【使用中のOS】:Windows2000
【使用中の(携帯)機種】:V602T nuda
【使用中ini設定】:Transcoding_V601T.ini
【質問内容(詳しく詳細に)】
動画でなく音だけのファイルを作って楽しんでいますが
静止画像soundonly.jpg を差し替える際に適当な画像を入れると
スケーリングで縦横の比率が変わってしまいます。
何かスケーリングを止めるようなスイッチ(引数)はあるのでしょうか?
縦横の比率に合わせた画像を用意しなくてはならないのが面倒です。
それとも機種依存でしょうか?
あとsoundonly.jpgの画像の制限は変換君にあるのでしょうか?
あればその値を教えてください。

  • -fixaspectを試してみてください。 -- 2007-03-27 (火) 18:05:41

エラー2002

ちさと? (2007-03-26 (月) 23:26:33)

【使用中のOS】
:VISTA
【使用中の携帯】
:IPOD

【質問内容(詳細に)】
:

A>ConvertMovieToFile:NewMovieFromFile Error
A>Dialog : 処理実行中にエラーが発生しました [Error:-2002]
T>Finished.

こういうエラーメッセージがでてしまいます。
どなたか対処方法を教えてください…

  • 再圧縮を推奨。ただし変換君はVistaに正式対応していないため再圧縮を行っても変換できないかもしれません。その場合は諦めてください。 -- ('A`) 2007-03-26 (月) 23:30:00
  • ありがとうございます、ちょっとやってみます( ..)φメモメモ -- ちさと? 2007-03-26 (月) 23:33:23
  • Vista Home Basic+QT6.5.2では一応変換出来てます。Aeroが問題になるとも思えませんがねぇ。 -- マサト? 2007-03-26 (月) 23:55:30

comment

docomo SH903iTV

動画素人? (2007-03-26 (月) 09:54:51)

使用中のOS】
:WindowsXP

【使用中の機種】
: SH903iTV
【使用中ini設定】
:Transcoding_3GPP_AAC_XviD.ini

【質問内容(詳しく詳細に)】
 aviファイルを3GPに変換して、SDのSD_VIDEO\PRL001フォルダに
 MOL001.3gpのファイル名でコピーし、管理情報の更新をしても
 携帯端末のデータBOX、ビデオで「ビデオがありません」に
 なってしまいます。
 変換後のファイルの大きさは79,739KBです。
 手順通りに作業したつもりですが、なにぶん初めてなので
 どこがいけないのか判りません。
 どなた様かご教授お願い致します。

  • データリンクソフトを使ってみては? -- おくさん? 2007-03-26 (月) 13:38:54
  • 拡張子を表示してありますか?表示していない場合はファイル名をMOL001としてみてください。 -- ('A`) 2007-03-26 (月) 13:39:35
  • おそらく、データBOX→iモーション→カメラフォルダ に入ってると思われます。 -- a? 2007-03-26 (月) 21:58:41
  • SH903iと一緒なら・・・PRIVATE\SHARP\IMPORTに動画・音声ファイルを入れるとLifeKit-microSD管理-インポート-iモーションで観れます。ファイル名は何でもいいみたい。 -- てつ? 2007-03-26 (月) 22:25:09
  • てつさんが教えてくださったiモーションで再生できました。ありがとうございます。ビデオモードではやはり認識してくれません。iモーションで再生するしかないのでしょうか? -- 動画素人? 2007-03-28 (水) 06:50:17
  • ビデオモードってのがなんなのか知らないんだが変換君で作る3gpはiモーションだからiモーションしか無理じゃない?iモーションでも不便があるわけではないと思うんだけど。 -- ('A`) 2007-03-28 (水) 15:41:36
  • SH903iにはビデオモードって無いかな?本体にはaさんが、言ってるとおりカメラフォルダに収納されます。どれ位の容量まで入れれるかは検証していません。 -- てつ? 2007-03-28 (水) 19:10:20
  • おっしゃるとおり、iモーションで再生できているので問題ありません。皆さんありがとうございました。 -- 動画素人? 2007-03-28 (水) 22:36:33
  • Life kitの中にmicroSD管理があるので、管理情報の更新でできましたよ? -- pachi? 2007-04-05 (木) 09:24:20

音声ビットレート

AS? (2007-03-26 (月) 01:38:41)

【質問内容(詳細に)】
音声ビットレートを希望サイズで自動調節したいんですが
どういうコマンドをtranscodingに組み込めばいいのでしょうか?

  • サイズを指定して自動調節は不可能です。自分で計算してください。 -- ('A`) 2007-03-26 (月) 01:51:38
  • リンク集の中にビットレート計算機があります -- 2007-03-26 (月) 02:28:28

HE-AACに画像

(2007-03-25 (日) 13:17:19)

HE-AAC(DoCoMo & SoftBank)に静止画を付加したいのですが、どのようなini設定にしたら良いのでしょうか?

  • auはHE-AACのページにある設定を使えば可能だから、恐らくDoCoMoも同じように作れば出来ると思う。ただ未確認なので自分で試してみて。 -- おくさん? 2007-03-25 (日) 13:32:10

エラー 2048について

(2007-03-25 (日) 02:48:05)

【使用中のOS】
:XP
【使用中の携帯】
:PS3での動画の再生
【使用中transcodingの名前】
:Transcoding_PS3.ini
【元の動画のコーデック】
704x396 24Bit DivX 5.1.1 29.97fps 95876f 1073.10kb/s
MPEG1-LayerIII 48.00kHz 160.00kb/s CBR JointStereo/MS

【質問内容(詳細に)】
:数時間の変換後、再生する際に「エラー -2048このファイルはムービーファイルではありません」と出ます。途中で変換処理を中断したファイルは正常に再生できるのですが…。アドバイスお願いします。

  • えーっと再生する際って言うのはPCでの再生?それともPS3での再生?PCでの再生の場合、QTのバージョンが6.5.2だとH.264は再生できません。PS3の場合は…PS3は一応持ってるけど殆ど弄ってないのでなんとも言えないけれど…。一応再圧縮してみるとかくらいかな。 -- ('A`) 2007-03-25 (日) 03:16:23
  • PCでの再生でこのエラーが出ます。PS3でも再生できません。QTのバージョンは7.1.5です。検証の結果、画質をおとし、変換後のサイズを小さくすると正常に再生できるようです。変換後のサイズが4Gくらいの動画を扱いたいのですが良い方法をご存知の方は教えてください。 -- 2007-03-25 (日) 21:05:08
  • 4GBは無理なような。PS3がなんのファイルフォーマットを使用しているかは不明だけどFAT32だったりしたら上限は4GBまでだから4GB以上は不可能だし。そもそも元のデータがすでにDivxなどで圧縮されている動画を4GBになるように変換しても無意味だと思われますのでせいぜい2GB程度が限界でしょう。 -- ('A`) 2007-03-25 (日) 22:45:40

SH903iTVへテレビ画像の保存

PJ? (2007-03-25 (日) 00:25:17)

【使用中のOS】
:XP
【使用中の携帯】
:SH903iTV
【使用中transcoding設定】
:
【元の動画のコーデック】
 
:
【質問内容(詳細に)】
ウインドウズメディアセンター版で録画したテレビを変換君で携帯に落とす場合、変換君の設定ファイルセレクターはどれを選べばよいでしょうか?
SH900iのもので試しに作成し、ファイル名はMOL001.3gpとしてMICRO SDに入れて、SDの管理情報更新しましたが、何も再生されません。
ちなみに別でコピーした音楽はiモーションで再生されますので、SD自体は認識してます。

  • 以前にウインドウズメディアセンターで録画したものは保護がかかってて無理って言う質問があった気がするよ。気がする程度だから過去ログを読むことをおすすめします。 -- ('A`) 2007-03-25 (日) 00:42:05
  • コメント有難うございます。自己レスですが、この板の中ではキーワードで見つかりませんでしたが、ググッてみましたら、番組によっては保護が掛かっているようですね。試しに変換君で変換したファイルをPC上で再生したら声が出ませんでした。 -- PJ? 2007-03-25 (日) 08:47:36

w43kでyoutubeからとった動画を再生

ryu? (2007-03-24 (土) 20:01:44)

【使用中のOS】
:XPHOME
【使用中の携帯】
:W43K
【使用中transcodingの名前】
:音声AAC形式一般設定
 【質問内容(詳細に)】
:
youtubeの動画を保存サイトから保存して携帯動画変換君で、変換して携帯には保存できましたが再生するときにデーターサイズオーバーになってしまいさいせいできません。どうすればよいでしょう。すみませんがもしよければおしえてください。

  • そのままの意味で解釈するなら、Transcoding.iniカスタマイズを参考にして、ファイルサイズを下げてみては? -- abc? 2007-03-24 (土) 20:13:15
  • W42KW44Kの解説の中に音声のみの3g2は1.5MBまで再生可能と書いてあります。 -- 2007-03-24 (土) 20:27:45
  • すみません。音声だけでなく動画なので、できません。それと、transcodingをどうやって、携帯動画変換君に追加するのですか? -- ryu? 2007-03-25 (日) 16:34:19
  • Transcoding.iniカスタマイズを読めば分かるはずですよ。 -- ('A`) 2007-03-25 (日) 22:46:44
  • [Item5] Title=QCIF高画質15fpsステレオ TitleE=QCIF High quality 15fps Stereo Command0=""<%AppPath%>\cores\ffmpeg" -y -i "<%InputFile%>" -timestamp "<%TimeStamp%>" -bitexact -vcodec mpeg4 -fixaspect -s 176x144 -r 14.985 -b 400 -acodec aac -ac 2 -ar 16000 -ab 32 -f 3gp -muxvb 64 -muxab 32 "<%TemporaryFile%>.3gp"" Command1=""<%AppPath%>\cores\QT3GPPFlatten" "<%TemporaryFile%>.3gp" "<%TemporaryFile%>_2.3g2" -c QT_3GPP2_QCIF_AAC.ini" Command2="rm "<%TemporaryFile%>.3gp"" Command3=""<%AppPath%>\cores\ATOMChanger" "<%TemporaryFile%>_2.3g2" "<%OutputFile%>.3g2" "Add_mfra.ini"" Command4="rm "<%TemporaryFile%>_2.3g2""
  • [Item番号] Title=任意の名前 TitleE=QCIF カスタマイズした設定の名前 Command0=""<%AppPath%>\cores\ffmpeg" -y -i "<%InputFile%>" -timestamp "<%TimeStamp%>" -bitexact -vcodec mpeg4 -fixaspect -s 176x144 -r カスタマイズ -b カスタマイズ -acodec aac -ac 1か2 -ar カスタマイズ -ab カスタマイズ -f 3gp -muxvb 64 -muxab 32 "<%TemporaryFile%>.3gp"" Command1=""<%AppPath%>\cores\QT3GPPFlatten" "<%TemporaryFile%>.3gp" "<%TemporaryFile%>_2.3g2" -c QT_3GPP2_QCIF_AAC.ini" Command2="rm "<%TemporaryFile%>.3gp"" Command3=""<%AppPath%>\cores\ATOMChanger" "<%TemporaryFile%>_2.3g2" "<%OutputFile%>.3g2" "Add_mfra.ini"" Command4="rm "<%TemporaryFile%>_2.3g2""

上記の要領で[Item番号]を追加します-- 2007-03-25 (日) 23:19:50

  • 皆さんありがとうございました。無事できることができました。 -- ryu? 2007-03-26 (月) 21:01:04

VGA用のQT3GPPFlatten

shinya? (2007-03-24 (土) 01:41:09)

911Tの設定ファイル二つをDLし対象フォルダに保存しましたが
QVGA設定だと変換できますがVGAだと最後に強制終了してしまいうまくいきません。
「参考設定例や911T向け設定ファイルではVGA用のQT3GPPFlattenがダウンロードされていないと動作しません。」
これだと思い、ネットを探して見ましたが見つかりませんでした。
お知恵をお貸しください。
OS:windows XP Pro SP2
携帯:SoftBank 911T
transcoding:Transcoding_XviD_AAC_911T.ini

  • VGA用のQT3GPPFlattenってのはQT_3GPP(MobileMP4)_VGA_AAC.iniの事です。QT_3GPP(MobileMP4)_VGA_AAC.iniがcoresに入っていれば問題ないはずです。 -- ('A`) 2007-03-24 (土) 02:17:06
  • 早速のお返事ありがとうございます。どこ探してもないわけですね。エラーは別ということですね。 -- shinya? 2007-03-24 (土) 02:26:44
  • 複数の動画でエラーがでるとちょっと原因がわからないけど、エラーが出る動画が1つだけなら再圧縮を推奨します。 -- ('A`) 2007-03-24 (土) 02:32:02
  • わかりました。物凄く恥ずかしい理由でした。AACがACCになっていました。お世話がせいたしました。はずかしい><しかしVGAすごくきれいでびっくりです。電池がどれくらい持つか>< -- Shinya? 2007-03-24 (土) 02:53:52
  • こんなことで三日も悩んでました・・・>< -- shinya? 2007-03-24 (土) 02:54:44

2pass設定について

こば? (2007-03-24 (土) 00:04:12)

【使用中のOS】
XP

【使用中transcodingの名前】
ipod向け設定

2passにしようと色々いじってみましたがちょっと出来ませんでした。
どこを変えればうまくいきますか?

(元)
Command0=""<%AppPath%>\cores\ffmpeg" -y -maxfr 30 -i "<%InputFile%>" -title "<%Title%>" -timestamp "<%TimeStamp%>" -bitexact -vcodec xvid -s 544x416 -b 2000 -acodec aac -ac 2 -ar 48000 -ab 80 -f ipod "<%OutputFile%>.MP4""
Command1=""<%AppPath%>\cores\AddiTunes" "<%OutputFile%>.MP4""

(変え)
Command0=""<%AppPath%>\cores\ffmpeg" -y -maxfr 30 -i "<%InputFile%>" -title "<%Title%>" -timestamp "<%TimeStamp%>" -bitexact -vcodec xvid -s 544x416 -b 2000 -acodec aac -ac 2 -ar 48000 -ab 80 -f ipod "<%OutputFile%>" -pass 1 -passlogfile "<%TemporaryFile%>".MP4""
Command1=""<%AppPath%>\cores\ffmpeg" -y -maxfr 30 -i "<%InputFile%>" -title "<%Title%>" -timestamp "<%TimeStamp%>" -bitexact -vcodec xvid -s 544x416 -b 2000 -acodec aac -ac 2 -ar 48000 -ab 80 -f ipod "<%OutputFile%>" -pass 2 -passlogfile "<%TemporaryFile%>".MP4""
Command2="rm "<%TemporaryFile%>-0.log""
Command3=""<%AppPath%>\cores\AddiTunes" "<%OutputFile%>.MP4""

  • んーそこまで理解できているなら教えるより「機種別設定:3GP2ファイル, W11H,W11K向け設定」の2Passを参考にしたほうが早いと思う。 -- ('A`) 2007-03-24 (土) 00:08:29
  • w11の普通のと2passをよーく見比べましたがうーむ、、ヒントなんかないですかね -- こば? 2007-03-24 (土) 00:26:19
  • ふーむ。まず変換後のファイルの出力が"<%OutputFile%>"と"<%TemporaryFile%>".MP4""と2つもある。それと変換には関係ないかもしれないが-pass 1(2も)が後ろにありすぎじゃないかと。そんな所かな。 -- ('A`) 2007-03-24 (土) 00:48:23
  • んー難しい、見よう見まねで2passを真似ただけなので意味を分かっていませんでした。勉強しますね。 -- こば? 2007-03-24 (土) 01:16:30
  • アウトプットとログファイルのファイル名がおかしい -- 2007-03-24 (土) 06:46:16

無題

(2007-03-23 (金) 14:00:30)

3g2ファイルを3gpに変換しようとしますが、何度やっても0%から進みません。どうしてでしょうか。

  • ちなみにクイックタイムは6.5.2に変えました。 -- 2007-03-23 (金) 14:01:12
  • 3g2から3gpに変換する意味はありません。単純に名前の変更から拡張子を変えるだけでよろしい。 -- 2007-03-23 (金) 14:13:31
  • 早速のご回答ありがとうございます。ご指摘どおりやってみたのですが、携帯で15秒しか再生されませんでした。 -- 2007-03-23 (金) 15:28:18
  • 質問する前にをよく読みましたが分かりませんでした。 -- 2007-03-23 (金) 15:31:56
  • まず、なぜ3g2を3gpにするのかが不明なんだけど…QT3GPPFlatten.exeに断片化されないiniを用いて通せば問題ない。 -- ('A`) 2007-03-23 (金) 15:44:21
  • クイックタイムで出来ました。ありがとうございました。 -- 2007-03-23 (金) 18:46:50

著作権保護について

MAQ? (2007-03-23 (金) 02:49:00)

質問させていただきます。

【使用中のOS】
:WindowsXP Professional

【使用中の携帯】
:W51S

【使用中transcodingの名前】
:

【元の動画のコーデック】
:Transcoding_3GPP_AAC.ini

【質問内容(詳細に)】
W51Sにて動画を見ようと携帯動画変換君を使用させていただいている者です。
一般的な設定である「Transcoding_3GPP_AAC.ini」を指定して
変換後のファイルを作成し携帯のメモリスティックへ移動が完了。
メモリスティック内から本体内のデータフォルダへもコピーができました。
しかしいざ再生しようとすると「再生できない」とのメッセージがでました。
おそらく詳細にある「著作権保護あり」が問題だと思います。

次に安易な考えですが「Transcoding_W21SA.ini」を指定して
変換後のファイルを同じく携帯へ流し込み本体内のデータフォルダへコピーし
再生しようとすると今度は再生ができました。
詳細にある「著作権保護」も「なし」となっていました。
やはりこれが問題であったと確認しました。
しかし予想していたことですが「Transcoding_W21SA.ini」指定の動画では
画像が数秒でみだれてしまいこれでは実用にたえません。

初めにためした一般的設定「Transcoding_3GPP_AAC.ini」指定では
画像は問題ありませんでした。Quicktimeでもちゃんとみられます。
しかし保護でひっかかります。

なんとかこの保護をとりさる方法はないでしょうか。
ログを拝見すると「偽装」という方法を眼にしますが
いろいろ「Transcoding_W21SA.ini」の記述をまねてみたり
できるかぎり試行錯誤しているのですが行き詰まってしまっている状態です。

どなたかよきアドバイスを頂戴できればと思います。

宜しくお願いします

  • 目の付け所はするどいですが、著作権保護は携帯本体→外部メモリへの転送を行えなくするためのものなので再生自体に影響はありません。W51Sの設定を使用することをオススメします -- ('A`) 2007-03-23 (金) 03:56:52
  • アドバイス感謝です。早速設定を加えて変換したところ携帯にて動作が確認できました。ありがとうございました。 -- MAQ? 2007-03-23 (金) 16:44:48
  • 上記のコメントを書いた者です。動作確認がとれた後今度はw51sのフルサイズである432x240を試したのですが再生ができなくなってしまいました。フルサイズの設定では見ることはできないのでしょうか。 -- MAQ? 2007-03-23 (金) 16:48:18
  • W51Sをきちんと読んでください。「解像度:QVGAでのみ動作確認済。事実上の限界値でしょう。」 -- ('A`) 2007-03-23 (金) 17:24:39

WMV9

(2007-03-22 (木) 21:55:00)

なぜかWMV9の動画の変換と再圧縮が出来ません。(WMV9からDivXへ再圧縮)
変換の時には変換が始まらず、再圧縮のときは途中でパソコンの電源が切れてしまいます。
他の動画の再圧縮は出来るのですが、これは動画自体が悪いのでしょうか?

  • 変換君でWMVを変換できないのは当然です。readmeを読みなさい。/ 再圧縮が出来ないというのはソフトと相性が悪いのだと思われます。きっと他のソフトが再圧縮で使用しているソフトに干渉していると思われます。この場合どうしようもないのでPCのリカバリをするしかないかと。 -- ('A`) 2007-03-22 (木) 21:59:39
  • ありがとうございました。失礼しました、確かにreadmeに書いてありました。 -- 2007-03-22 (木) 22:06:45
  • http://www.nurs.or.jp/~calcium/wiki/index.php?Avisynth%A4%F2%BB%C8%CD%D1%A4%B7%A4%C6%C6%C9%A4%DF%B9%FE%A4%E0#content_1_0 ←ここを見て設定すればwmvも変換できるよ、但し、良くあるaviとして扱われているwmvは、拡張子をwmvに変えないと変換できないから注意して。変換し終わったらaviに戻せばいいから。 -- 2007-03-23 (金) 15:11:23

動画の断片化

素人バカ? (2007-03-22 (木) 19:39:29)

動画を断片化したいのですが方法がいまいちわかりません。ヤフッてもみたんですけど・・・
W33SAで再生できるようの断片したいんですけど、やり方を教えて下さい。
宜しくお願いします

  • なんでW33SA/SAの設定を使わないの? -- ('A`) 2007-03-22 (木) 21:52:54
  • え?「断片化しない場合は25分まで、断片化すれば無制限」と書かれてるから断片するしかないのでは? -- バカ素人? 2007-03-22 (木) 22:09:34
  • もしかしてW33SA/SA兇暴颪れている設定を使えば勝手に断片化してくれるの? -- バカ素人? 2007-03-22 (木) 22:11:37
  • 素人だろうがなんだろうが試すくらいは出来るでしょ? 30分くらいのソースで試してみれば? 試して出来ない場合にまた来なさい -- 2007-03-22 (木) 23:10:46
  • 「下記の設定で1時間以上再生可能 (1.29GB、3時間まで確認済み) 」と書いてあるということはその設定は断片化されているということに気がついてほしかったw -- ('A`) 2007-03-22 (木) 23:14:58
  • 28分動画を変換してみたのですが25分で区切られませんでした。最後のほうの〜〜File%>*.*"""の*にはItem*の*の数字をあてはめるのでしょうか? -- 馬鹿素人? 2007-03-23 (金) 15:33:03
  • 設定は何も弄る必要はありません。 -- ('A`) 2007-03-23 (金) 15:43:10
  • そうなんですか。Item*の*を他の設定が1.2.3と続いているので11だと予想してしました。(W21設定)試してみます(again) -- 馬鹿素人? 2007-03-23 (金) 16:07:19
  • やはりできない・・・。断片化された場合ファイルは二つできるはずですよね。パソコンで再生しているだけだから携帯にいれれば再生できる・・なんてことはないか。 -- 馬鹿素人? 2007-03-23 (金) 19:50:04
  • 断片化された場合ファイルが2つできるなんて事はありませんが?断片化しようとしなかろうとできるファイルは1つです。何か少し勘違いをしているような。 -- ('A`) 2007-03-23 (金) 22:27:23
  • というか、いろいろ勘違いしているようなので。[Item*]の*は仰るとおり1.2.3と続いている番号にしてください。ですが〜〜File%>*.*"""の*は変更してはいけません。 -- ('A`) 2007-03-23 (金) 22:29:26
  • *を訂正して再び動画を変換していたので返答に時間がかかってしまいました。残念ながらやはり失敗に終わりました -- 馬鹿な素人? 2007-03-23 (金) 23:26:04
  • 断片化というのは動画を複数ファイルに分割するものではありませんよ。 -- 2007-03-23 (金) 23:28:53
  • え?もしかして速い動きの映像をちょっとトバシトバシに動かすことですか? -- 馬鹿な素人? 2007-03-24 (土) 00:00:27
  • それも違う…断片化の理屈を説明するのは難しいなぁ…。なんつーか、2時間の映画を変換しました。普通ならそれで終わり。ただの2時間の動画ができるだけ。でも断片化を行うと2時間の動画を15秒ずつに区切って保存する。ただし、区切るって言うのは作成ファイル数を増やすんじゃなくてファイルの中身で処理しているということ。 -- ('A`) 2007-03-24 (土) 00:05:23
  • つまり、断片化しても断片化しなくても作成ファイル数は1つ。違うところは断片化に対応していない携帯で断片化された動画を再生すると最初の15秒しか再生できないっていうだけ。 -- ('A`) 2007-03-24 (土) 00:06:44
  • 結論を言うとW33SA/SAの設定を使えば断片化されて変換されるから出来上がったファイルをW33SAで再生すれば3時間の動画だってなんでもござれってことだ。俺もW33SAユーザーだから確認済み。 -- ('A`) 2007-03-24 (土) 00:10:51
  • なるほど〜〜すごいですね。W33SAでもそこまでできるとは。1GのminiSDが明日届く予定なので試したみたいと思います -- 馬鹿な素人? 2007-03-24 (土) 00:21:28

変換して送ったのですが

zaf? (2007-03-22 (木) 14:51:23)

【使用中のOS】
windows xp
【使用中の携帯】
SH903i
【使用中transcodingの名前】
:
【元の動画のコーデック】
:
【質問内容(詳細に)】
変換して、メールに添付してパソコンから携帯に送信したのです。
ですが、メールからは音楽を聴けるものの着信に設定できない、どこに保存されているのか分からないという状況に陥っています。
SDカードを使わなくてはいけないのでしょうか?

  • 用はどこに保存してあるかわからないから着信音に設定できないってことか?そんなのは携帯の説明書を読みなさい。/ ついでにSDカード経由では着信音登録はできません。 -- ('A`) 2007-03-22 (木) 14:58:16
  • 着信音登録はできなくてもいいんですが、データBOXから再生ができないんです、メールから開かないと出来ません。 -- zaf? 2007-03-22 (木) 15:03:19
  • だ〜か〜ら、取説読めって。 / 再生だけならSD使えばいけるはず -- 2007-03-22 (木) 20:14:03
  • メールからサブメニュー添付ファイルを選んで保存。データBOX-iモーション-iモードに保存されます。 -- てつ? 2007-03-22 (木) 23:15:20

変換はしたものの

SEN? (2007-03-21 (水) 20:31:22)

【使用中のOS】
Windows2000
【使用中の携帯】
W44S
【使用中transcodingの名前】
3GPPファイル,音声AMR形式一般設定


変換後、yahooメールを利用してデータをPCから携帯へ移したのですが、
再生することが出来ませんでした。
変換君対応機種のW44Sの音声関連の欄を見たんですが、

[Item*]
Title=着うた / 音声:96kbps 24kHz Stereo
Command0=""<%AppPath%>\cores\ffmpeg" -y -i "<%InputFile%>" -s qcif -r 1 -b 8 -vcodec h263 -acodec aac -ac 2 -ar 24000 -ab 48 -muxab 64 "<%OutputFile%>.3g2""

これが一体何を指すのか分からないでいます。
Transcodingを開いて変更してみたんですが、
変換終了間際にエラー(-50)だったかが起きてしまいます。
どうすればW44Sで音声の再生が出来るのでしょうか。

  • メールで3g2は送れないような?やってないからなんとも言えませんが。メモリースティックに入れるのがいいかと。/ 設定の意味はTranscoding.iniカスタマイズを読めばわかるかと。 -- ('A`) 2007-03-21 (水) 21:04:44
  • 末尾の3g2を3gpに変えてやってみましたが、送ることは出来ませんでした。特別な設定の変更をしない場合は送ること自体は出来ますが、データを開くことが出来ないという現状です。 -- SEN? 2007-03-22 (木) 13:56:18
  • うん、その通り。だからメモリースティックに入れろと。/ 設定自体は上の設定で問題ないことは近所のauショップにあったホットモックで確認済みだからメモステにいれなさいと。 -- ('A`) 2007-03-22 (木) 14:12:48
  • PCから直接メモリースティックにデータを送る方法に困っているのですが、何か良い方法はないでしょうか。 -- SEN? 2007-03-22 (木) 18:21:50
  • カードリーダを使う以外にほぼ方法はない。出費は抑えたいなら、転送速度は遅いが携帯を付属のケーブルでUSBにつなぎ、マスストレージモードで書き込み。(←ケーブルが付属していたらの話) -- 2007-03-22 (木) 20:20:07
  • なるほど、いろいろとお世話になりました。どうもありがとうございます。 -- SEN? 2007-03-23 (金) 00:25:38

2パスの設定

Mi? (2007-03-21 (水) 16:37:10)

【使用中のOS】
:XP

Command0=""<%AppPath%>\cores\ffmpeg" -y -i "<%InputFile%>" -pass 1 -passlogfile "<%TemporaryFile%>" -timestamp "<%TimeStamp%>" -bitexact -vcodec mpeg4 -fixaspect -s 320x240 -r 15 -b 210 -acodec aac -ac 1 -ar 24000 -ab 25 -f 3gp -muxvb 64 -muxab 32 "<%TemporaryFile%>.3gp""
Command1=""<%AppPath%>\cores\ffmpeg" -y -i "<%InputFile%>" -pass 2 -passlogfile "<%TemporaryFile%>" -timestamp "<%TimeStamp%>" -bitexact -vcodec mpeg4 -fixaspect -s 320x240 -r 15 -b 210 -acodec aac -ac 1 -ar 24000 -ab 25 -f 3gp -muxvb 64 -muxab 32 "<%TemporaryFile%>.3gp""

この部分で、例えばpass 1の-b 210を-b 300に変えた場合(pass 2は-b 210のまま)、画質は上がるのでしょうか?

  • 2passはpass2の方でエンコして、pass1はその前の準備みたいなものなので、両方揃っていないとエラーとか出そうだけど。面白そうなので、試してみればいいと思いますよ。 -- siryu? 2007-03-21 (水) 18:49:13
  • 一度やった時、エラーは出ませんでしたが容量が下がったんです。 -- Mi? 2007-03-21 (水) 19:49:30
  • @あ -- 2007-03-22 (木) 02:23:30
  • 上ミス、失礼、パス1は基本的にパス2へのビット割り当てなどを調査しますので、bを変更しても問題ありませんが、画質低下など招く恐れがあります。Bを大きくする場合、キーフレームが少なくなるので、シーンチェンジ検出を設定する方が画質向上が見込めます。 -- 2007-03-22 (木) 02:26:37
  • ありがとうございます。試してみます。 -- Mi? 2007-03-22 (木) 11:18:04

携帯変換君が…

ユッキー? (2007-03-21 (水) 10:08:39)

つい先日まで普通に起動していた変換君
突然起動しなくなりました
もう一度新たにダウンロードしても起動しません

ついでに
Readme.txt等も全く起動しないのですが…

  • 解凍しなさい。 -- ('A`) 2007-03-21 (水) 14:24:23
  • 一般的に考えられるのが、ウイルスがPC内に入り込んだものと思われます。ウイルス検索を行ってみてください。 -- kino? 2007-03-21 (水) 21:53:16
  • ウィルスにやられたなら変換君以外にも影響があるはず。考慮できないわけではないが、より一般的な原因としては解凍してないとか、必要なファイルを削除してしまった可能性でしょう。readme.txtが開けないとなると、やはり('A`)さんの言う通り解凍していない可能性が高いかと。XPなら運がよければ起動できる場合もあったし… (変換は出来なかったけど) -- 2007-03-21 (水) 23:26:15
  • Super cとかOpenSSHとかCygwin1.dll使ってるアプリ入れて競合したんじゃないの -- ふぁ? 2007-03-23 (金) 00:11:48
  • 重症だと思うよ。OS入れなおさないとだめかも。>Readme.txt等も全く起動しない -- ななし? 2007-03-24 (土) 23:36:22

SH903iで

kk? (2007-03-20 (火) 23:34:07)

SH903iで再生する動画を作ろうと思い、
[Item*]
Title=WQVGA / 映像:Xvid 864kbps 30fps 音声:192kbps 48kHz Stereo
Command0=""<%AppPath%>\cores\ffmpeg" -y -i "<%InputFile%>" -timestamp "<%TimeStamp%>"-bitexact -qmin 1 -qmax 31 -vcodec xvid -mbd 2 -4mv -trell -aic -fixaspect -s 400x240 -r 30 -b 864 -acodec aac -ac 2 -ar 48000 -ab 96 -f 3gp -muxvb 192 -muxab 64 "<%TemporaryFile%>_1.3gp""
Command1=""<%AppPath%>\cores\QT3GPPFlatten" "<%TemporaryFile%>_1.3gp" "<%OutputFile%>.3gp" -c QT_3GPP(MobileMP4)_QVGA_AAC.ini"
Command2="cmd /c "del "<%TemporaryFile%>*.*"""
で動画を作ったんですが、音声しか流れません。映像が流れません。
なぜでしょうか?

  • んー設定はとくに問題ないみたいだけどなぁ。とりあえずWQVGAじゃなくてQVGAにしてみては? -- ('A`) 2007-03-20 (火) 23:42:00
  • Command0のxvidの所をmpeg4に変えて見たらどうだろう。もしそれで映像が出たら、xvidのコーデックが無い、あるいは使えない、という事で映像が出ないということだと思います。ウチでもそういう事がありました。 -- siryu? 2007-03-21 (水) 02:08:07

容量を下げたけど・・・

kino? (2007-03-20 (火) 19:31:56)

変なこと聞いてるように感じるかもしてませんが、

携帯で動画を見るため、容量を出来る限り下げて、携帯動画変換君を使ったところ・・・、どれだけ下げても容量が同じになってしまいます。

どうしたら 解決できるのでしょうか?
よければ いいアドバイスをお願いします。

  • 元の動画のファイルサイズは関係ありません。設定ファイルをいじりましょう。設定ファイルについてはここを参考に。 -- sw? 2007-03-20 (火) 19:39:59
  • 変換元のファイルをいくら小さくしても再生時間が変わらない限りほとんどの場合容量は小さくなりません。変換君で変換する部分の設定を変えて容量を調節してください。 -- abc? 2007-03-20 (火) 19:42:31
  • コメントありがとうございました。勉強します -- kino? 2007-03-21 (水) 21:54:44

[Error:-2002]のエラーログです

sjapan? (2007-03-19 (月) 15:23:02)

T>Avisynthが利用可能です
T>007.mp4 (機種別設定:3GP2ファイル, W45T向け設定/EZムービー / 映像:Xvid 512kbps 30fps 音声:192kbps 44.1kHz Stereo)
E>"C:\3gp\3GP_Converter034\cores\ffmpeg" -y -i "C:\Documents and Settings\1\デスクトップ\新しいフォルダ (2)\007.mp4" -timestamp "2007-03-19 09:25:34" -bitexact -async 1000 -qmin 1 -qmax 31 -me full -vcodec xvid -mbd 2 -4mv -trell -aic -sc_threshold 10000 -fixaspect -s 320x240 -r 30 -b 512 -acodec aac -ac 2 -ar 44100 -ab 96 -f 3g2 -muxvb 192 -muxab 64 "C:\DOCUME~1\1\LOCALS~1\Temp\23EB2D74-E0C8887D-BA705583-ED1F042D_1.3g2"
ffmpeg version CVS, build 4759, Copyright (c) 2000-2004 Fabrice Bellard

 configuration:  --enable-mp3lame --enable-faac --enable-faad --enable-amr_nb --enable-amr_wb --disable-ffplay --enable-small --enable-memalign-hack --enable-gpl --enable-xvid --enable-dts --enable-a52 --disable-vhook --enable-pthread --enable-x264 
 built on Dec  1 2005 17:25:10, gcc: 3.4.4 (cygming special) (gdc 0.12, using dmd 0.125)

Input #0, mov,mp4,m4a,3gp,3g2, from 'C:\Documents and Settings\1\デスクトップ\新しいフォルダ (2)\007.mp4':

 Duration: 00:02:42.3, start: 0.000000, bitrate: 3704 kb/s
 Stream #0.0: Video: mpeg4, yuv420p, 720x544, 29.97 fps
 Stream #0.1: Audio: aac, 44100 Hz, stereo

Output #0, 3g2, to 'C:\DOCUME~1\1\LOCALS~1\Temp\23EB2D74-E0C8887D-BA705583-ED1F042D_1.3g2':

 Stream #0.0: Video: xvid (hq), yuv420p, 320x240, 30.00 fps, q=1-31, 512 kb/s
 Stream #0.1: Audio: aac, 44100 Hz, stereo, 96 kb/s

Stream mapping:

 Stream #0.0 -> #0.0
 Stream #0.1 -> #0.1

Press [q] to stop encoding
video:10243kB audio:3698kB global headers:0kB muxing overhead 0.795822%
E>"C:\3gp\3GP_Converter034\cores\QT3GPPFlatten" "C:\DOCUME~1\1\LOCALS~1\Temp\23EB2D74-E0C8887D-BA705583-ED1F042D_1.3g2" "C:\DOCUME~1\1\LOCALS~1\Temp\23EB2D74-E0C8887D-BA705583-ED1F042D_2.3g2" -c QT_3GPP2_QVGA_AAC.ini
QT3GPPFlatten for 3GP_Converter Version 0.08
http://www.nurs.or.jp/~calcium/
A>ConvertMovieToFile:NewMovieFromFile Error
A>Dialog : 処理実行中にエラーが発生しました [Error:-2002]
T>Finished.


よろしくお願いします。

  • -qminオプションが1になってますが最小値は2だった気がします。 -- 2007-03-19 (月) 15:34:35
  • -qminは1が最小値であってるはず。特に設定は問題ないみたいだね。QT3GPPFlattenでエラーが出てるからQT3GPPFlattenが壊れてるのかも。変換君の再DLを推奨。再DLしてもダメなら再圧縮かな。 -- ('A`) 2007-03-19 (月) 15:41:24
  • あら私の記憶が違ってたようですね。話をややこしくして申し訳ありませんでした。 -- 2007-03-19 (月) 15:43:47
  • ご返答感謝いたします。変換君再DOWNは試してみましたがダメでした。同じ変換君をフォルダごとコピーをし、別のPCへ持っていくとうまく動くのですが、、、。なぜでしょう!? -- sjapan? 2007-03-19 (月) 16:24:00
  • 他のPCで可能ということはエラーが起きるPCにインストールされているソフトが変換君のQT3GPPFlattenに干渉してるんじゃないかな。この場合はどうしようもないので他のPCで変換するかエラーが出るPCをリカバリするしかないかと。 -- ('A`) 2007-03-19 (月) 16:51:10
  • ありがとうございます。とりあえず別PCでがんばりながら、干渉しているソフトを追及してみます。<(_ _)> -- sjapan? 2007-03-19 (月) 17:13:38
  • 最終報告です!レジストリの中をQT3GPPFlattenで検索したとこ、Direct3Dの中に1文を見つけました。それを削除したら直りました。 -- sjapan? 2007-03-22 (木) 17:27:50

[Error:-2002]について

sjapan? (2007-03-19 (月) 14:42:58)

【使用中のOS】
:Windows xp sp2
【使用中の携帯】
:W45T
【使用中transcodingの名前】
:
【元の動画のコーデック】
 720×544 24Bit MPEG4

 MPEG4-AAC 44.10Khz 16Bit 2ch

【質問内容(詳細に)】
処理実行中にエラーが発生しました [Error:-2002]というエラーでて
変換ができません。一応Neroの再インストール、QuickTimeの再インストール
(6.5と7どちらのバージョンも症状はかわらず)
3GP_Converterのインストールドライブを変える、MS configにて、neroの
常駐ドライバーをはずすなどいろいろ試して、質問の中もError:-2002で検索
してみたのですが、同じエラーの人がいなかったので書き込みをすることに
しました。どなたかわかる方よろしくお願いします。

  • 確かにError:-2002は単語検索でも出てこないですね。未知のエラーなようです。とりあえず使用中の設定とエラーログがないとどんなエラーか分からないので貼り付けてください。 -- ('A`) 2007-03-19 (月) 15:18:47

W51P

うたまろ? (2007-03-18 (日) 22:24:58)

【使用中のOS】
:XP
【使用中の携帯】
:W51P
【使用中transcodingの名前】
:
【元の動画のコーデック】
 (真空波動研などを用いて調べてください。間違っても、拡張子(aviなど)は書かないでください)
:
【質問内容(詳細に)】
:W51Pなのですがこの機種は中身がCAとの事ですが着信(うた)等の設定情報
どばたかご教授お願いいたします。

  • 仰るとおり中身はカシオ日立です。なので着信音登録は無理です。諦めましょう。 -- ('A`) 2007-03-18 (日) 23:44:48

Windows Vista

(2007-03-18 (日) 16:02:54)

Windows Vista Home Premiumを使用しているのですが動画をドロップできません。そのため動画を変換できません。
回答お願いします。

  • ドロップだけならできるはずだけど。QuickTimeを必要とする変換はVistaでは出来ません。(QTがVista非対応なので) -- おくさん? 2007-03-18 (日) 16:23:02
  • 同様です。勝手ながら、解決策を請います。どなたかご存じないでしょうか。 -- haruka? 2007-03-20 (火) 17:59:01
  • 解決策 1:XPを使う 2:QTがvistaに対応するのを気長に待つ おくさんさんの言うとおりvistaでもQT必須の機能以外は動くはずです。動かなければ解凍をしてないとか、DLをミスったとかじゃないかな? -- 2007-03-20 (火) 22:14:50

無題

ばた? (2007-03-16 (金) 23:48:16)

ファイル容量の偽装方法とAACをAMRに偽装する方法知りませんか?

  • ファイル容量の偽装はできません。ってかできるのなら今頃どの機種でも再生し放題になってます。/ AACをAMRに偽装するならバイナリエディタでファイルを開きmp4aをsamrに書き換えると偽装できます。しかしほとんどの機種で再生できなくなります。 -- ('A`) 2007-03-16 (金) 23:55:52
  • ありがとうございました。確かにそうですね(笑) -- ばた? 2007-03-17 (土) 00:06:40

SD-VIDEO形式(ASF変換)について

紅い稲妻? (2007-03-15 (木) 20:54:16)

実験中の設定ファイルについてで申し訳ございません。
多少カスタマイズして、320X240、動画29.97fps、2000kbps、音声ステレオ、160kbps、44.1khzにしてみました。DivX形式のAVIフォーマットの動画を読み込んだのですが、何故かエラーが表示されて変換が始まりませんでした。PCの空き容量やメモリー等にはまったく問題はないのですが、誰か原因の判る方がおられましたら何らかのアドバイスをお願いします。

  • DvixはDvixでも音声がoggだったりすると変換できません。音声コーデックを調べてください。 -- ('A`) 2007-03-15 (木) 22:31:12
  • http://updat1.free.fr/1D9B0A469B40174CB3313D5/SUPERsetup.exe ←このSUPERというソフトなら動画、音声の形式変換を1発でやってくれる優れものですから使ってみては? -- 2007-03-16 (金) 06:12:33
  • デフォの音声コーデックのG.726がモノラル専用みたいです、AACとかに変えたら音出なくなりますかね... -- 通りすがり 2007-04-05 (木) 07:26:10


トップ   編集 凍結 差分 バックアップ 添付 複製 名前変更 リロード   新規 一覧 単語検索 最終更新   ヘルプ   最終更新のRSS
Last-modified: 2010-10-04 (月) 21:45:44 (2626d)